&title=月まで届け、不死の煙
&artist=上海アリス幻樂団
&first=0.04
&lv_5=14
&des=我死不了
&inote_5=
(158){4},{8},,,,5,4,
{2}6,{8}3,2,{4}1,
{8}5,,,,,4,5,3,
{4}1,7,5,4,
{1}6,
{2}4/6h[2:1],{8}4,5,{4}3,
{2}4/2h[2:1],1,
{8}7,7,5,6,2,2,4,3,
6,4,8,2,(161){2}5/4,
(164){8}2b,{16}6,5,{4}6,{8}7,{16}3,4,{4}3,
{8}2,{16}5,4,{4}6,{8}7,{16}4,5,{4}3,
{8}2b,2,{16}5,4,6,5,{8}7,7,{16}4,5,3,4,
{8}2,2,{16}6,5,{8}6,{16}3,4,{8}3,{16}5,4,6,3,
{8}8b,1,{16}6,5,{8}6,1,8,{16}3,4,{8}3,
{16}7,5,{8}6,{16}2,4,{8}3,{16}8,5,{8}6,{16}1,4,{8}3,
{16}7b,8,7,8,6,1,{8}5,(156){16}2b,1,2,1,3,8,{8}4,
(143){16}5b,4,5,4,6,3,7,2,(153){8}8b>4[8:1]*<4[8:1],8,,,(156){4}2<8[8:1]/6>4[8:1],
2/6,{8}1>5[16:3],4,{4}6,
8p4[8:1]*q4[8:1],8,{8}6/2,{16}3,4,{8}1,{16}8,2,
{4}7<3[4:1],3>7[4:1],7,4p6[4:1],
{2}5h[4:1],{8}1,{16}7,3,{8}5,4/6,
7>1[8:1]/3<5[8:1],2/6,,,8<4[16:3],5,{4}3,
{8}1q5[8:1],1,{4}7,{8}1p5[8:1],1,{4}3,
{8}2,4,{16}3h[16:3],,,6,{8}4,7,{16}1,8,{8}1,
2<7[8:1],2,6q3[8:1],6,{4}4,{16}1,8,1,8,
(160){8}3h[8:1],7,5h[8:1],1,4h[8:1],{16}8,5,,5,7,4,
{8}6h[8:1],3,1h[8:1],4,5h[8:1],{16}3,7,,7,4,5,
{8}3-7[8:1],3,6-2[8:1],6,4-8[8:1],4,5,5,
1,2/4,8,7/5,1,{16}2,4,3,5,{8}4,
6h[8:1],2,4h[8:1],8,5h[8:1],{16}1,4,,4,2,5,
{8}3h[8:1],6,8h[8:1],5,4h[8:1],{16}6,2,,2,5,4,
{8}6-2[8:1],6,3-7[8:1],3,5-1[8:1],5,4,4,
8<6[8:1],6>4[8:1],4>2[8:1],2<8[8:1],{2}8,
(164){4}6>4[8:1],7,8<6[8:1],1,
2<8[8:1],3,4>2[8:1],5,
5<7[8:1],4,3<5[8:1],2,
1>3[8:1],8,7>1[8:1],6,
{8}2>4[8:1],5,2,6,5p1[8:1],7,5,8,
7<5[8:1],4,7,3,4q8[8:1],2,4,1,
{16}2,3,4,5,6,7,8,1,2/6,5,4,3,2,1,8,7,
6/2,3,4,5,6,7,8,1,2/6,3/7,4/8,5/1,{4}2<7[8:1]/6>3[8:1],
{1}2b-6[2:1],
{16}7,8,7,8,6,1,6,1,5,2,5,2,4,3,4,3,
{4}4h[4:1],5h[4:1],6h[4:1],5,
{16}2,1,2,1,3,8,3,8,4,7,4,7,5,6,5,6,
{4}5h[4:1],4h[4:1],3h[4:1],4,
{16}6,5,6,5,7,4,7,4,8,3,8,3,1,2,1,2,
{4}1h[4:1],2h[4:1],3h[4:1],4,
{16}3,4,3,4,{4}2h[4:1],{16}6,5,6,5,{4}7h[4:1],
2,{8}4/5,{16}1,8,{8}1,2/7,{4}4/5,
{8}7<4[8:1],7,3,2,1,{16}8,2,,2,7,3,
{8}6-2[8:1],6,4,4,1,{16}7,4,,4,6,3,
{8}5-1[8:1],5,4-8[8:1],4,6-1[8:1],6,3,3,
2h[8:1],8,6h[8:1],4,2,{16}8,1,,1,8,2,
{8}7-5[8:1],4-8[8:1],7,4,6,{16}7,8,,8,{8}7,
2-4[8:1],5-1[8:1],2,5,3,{16}2,1,,1,{8}2,
8h[8:1],{16}4,7,,7,5,6,{8}1h[8:1],{16}5,2,,2,4,3,
{8}8<6[8:1],6>4[8:1],4>2[8:1],2<6[4:1],{2}8,
{4}4>2[8:1]*<7[8:1],4,{8}1q5[8:1],8,{4}7/1,
{8}6<3[4:1],5,{4}4h[8:1],{8},2,2-5[8:1],1,
{4}1-6[8:1],2>5[8:1],1<6[8:1],2pp5[2:1],
1h[8:1],8h[8:1],7h[8:1],{16}6,5,{8}6,
{4}4q8[8:1]/7<5[8:1],4/7,{8}1,2/8,{4}3qq1[4:1]/7qq5[4:1],
{2}3/7,{8}2,4/3,7,6/5,
2h[8:1],4,1,{16}8,2,{8}7,5,4<7[8:1],3,
2,1-4[8:1],8qq5[16:5],1,{2}8,
{8}6h[8:1],{16}2,5,{8}4h[8:1],{16}8,3,{8}5h[8:1],{16}1,4,,4,2,5,
{8}3h[8:1],{16}6,4,{8}8h[8:1],{16}5,7,{8}4h[8:1],{16}6,2,,2,5,4,
{8}6-2[8:1],6,3-7[8:1],3,5-1[8:1],5,4,4,
8,7/1,2/6,{16}5,3,{8}5,{16}2,4,3,5,4,6,
{8}3h[8:1],{16}7,4,{8}5h[8:1],{16}1,6,{8}4h[8:1],{16}8,5,,5,7,4,
{8}6h[8:1],{16}3,5,{8}1h[8:1],{16}4,2,{8}5h[8:1],{16}3,7,,7,4,5,
{8}3-7[8:1],3,6-2[8:1],6,4-8[8:1],4,5,5,
1>3[8:1],3<5[8:1],5<7[8:1],7>1[8:1],{4}1,{32}4,5,6,7,8,1,2,3,
{4}4,{16}6,4,5,4,7,4,5,4,6,4,5,4,
(158){8}7-3[8:1],{16}3,3,{8}7,{16}2,2,{8}8>3[8:1],3,8-4[8:1],4V68[16:3],
8,3,1,1,{16}2,6,3,5,1,7,3,5,
{8}2-5[8:1],{16}3,4,{8}2,6,4/8-4[8:1],{16}7,5,{8}8,3,
{4}1>4[8:1]/5<8[8:1],5/1,{16}2,6,3,5,1,7,2,6,
{8}2-6[8:1],{16}6,6,{8}2,{16}7,7,{8}1<6[8:1],6,1-5[8:1],5V31[16:3],
1,6,{4}8V64[16:3],{8}4-8[8:1],3,{4}1,
{8}2/5,3/4,{16}2,1,{8}2,3/8,{16}7,4,6,5,{8}8,
1h[8:1],3h[8:1],5h[8:1],7h[8:1],{32}1,2,3,4,5,6,7,8,{4}1/5,
{8}2-6[8:1],{16}6,6,{8}2,{16}7,7,{8}1<6[8:1],6,1-5[8:1],5V31[16:3],
1,6,8,8,{16}7,3,6,4,8,2,6,4,
{8}7-4[8:1],{16}6,5,{8}7,3,5/1-5[8:1],{16}2,4,{8}1,6,
{4}8<5[8:1]/4>1[8:1],4/8,{16}7,3,6,4,8,2,7,3,
{8}7-3[8:1],{16}3,3,{8}7,{16}2,2,{8}8>3[8:1],3,8-4[8:1],4V68[16:3],
8,3,{4}1V35[16:3],{8}5-1[8:1],6,{4}8,
{8}7/4,6/5,{16}7,8,{8}7,6/1,{16}2,5,3,4,{8}1,
8<6[8:1],6>4[8:1],4>2[8:1],2<6[16:3],{2}8,
(164){8}7b/4b,{16}6,5,{8}7h[8:1],{16}4,5,{8}3h[8:1],{16}1<6[8:1],2,,2,{8}1,
3b,{16}4,5,{8}3h[8:1],{16}6,5,{8}7h[8:1],{16}1>4[8:1],8,,8,{8}1,
7b,{16}6-1[8:1],5,,5,{8}6,2b,{16}3-6[8:1],8,,8,{8}3,
7b,6/4,3,2/1,{16}7,8,6,1,5,2,4,3,
{8}5b,{16}3,4,{8}2h[8:1],{16}5,4,{8}6h[8:1],{16}8>3[8:1],7,,7,{8}8,
6b,{16}5,4,{8}6h[8:1],{16}3,4,{8}2h[8:1],{16}8<5[8:1],1,,1,{8}8,
2b,{16}3-8[8:1],4,,4,{8}3,7b,{16}6-3[8:1],1,,1,{8}6,
8b>2[8:1],2>4[8:1],4b<6[8:1],6<2[4:1],{4}8b,4,
{8}3b/5b,{16}6,5,{8}7h[8:1],{16}1,8,{8}2h[8:1],{16}4<7[8:1],3,,3,{8}4,
{16}1b,8,3,4,2,5,1,6,2,1,3b,8,4b,7,5b,6,
{8}1b-5[8:1],2,1/7b-4[8:1],8,7/2b-5[8:1],1,2/7b,8,
{16}1b,5,8,4,7,3,6,2,5,1,8,2,7,3,6,4,
{8}5b,{16}3,4,{8}2h[8:1],{16}8,1,{8}7h[8:1],{16}5>2[8:1],6,,6,{8}5,
{16}8b,1,6,5,7,4,8,3,7b,8,6,1,5,2,4,3,
{8}8b-4[8:1],7b,8/2b-5[8:1],1b,2/7b-4[8:1],8b,7/2b,1b,
{16}8b,4,1b,5,2b,6,3b,7,{32}8b`4b,1,2,3,4,5,6,7,{4}8-4[0.3622##0.1935],
(158){2}8,{8}3,2,{4}1,
{8}5,,,,,4,5,3,
{4}1,7,5,4,
{1}6,
{2}4/6h[2:1],{8}4,5,{4}3,
{2}4/2h[2:1],1,
{8}7,7,5,6,2,2,4,3,
6,4,8,2,(161){4}5,1q5[2:3]*>5[2:3],
{1}1b,
E
