&title=蝶々世界
&artist=蝶々P
&first=0.554
&des=Nyakusatsu feat. KittyKOI
&lv_5=13+
&des_5=Nyakusatsu feat. KittyKOI
&inote_5=
(192){16}B7,,,B3,{8}B4,B2,{16},B6,{8}B5,B8,B2,
{4}B4,{16}B2,,,B6,{8}B5,B7,{16},B3,{8}B4,
B1,B7,{4}B5,{16}B6,,,B1,{8}B2,B3,
{16},B8,{8}B7,B5,B3,{4}B1,{16}B3,,,B8,
{8}B7,B6,{16},B1,{8}B2,B4,B6,B8,C,
{16}2,,,4,{8}3,7,{16},5,{8}6,3,8,
{4}3,{16}7,,,5,{8}6,2,{16},4,{8}3,
6,1,{4}6,{16}1,,,4,{8}3,8,
{16},5,{8}6,1,5,{4}1,{16}8,,,5,
{8}6,1,{16},4,{8}3,8,7/2,{4}6b/3b,
7b<4[8:1],{8}7,1-5[8:1],,1,7-3[8:1],8,
{4}7,2>5[8:1],{8}2,8-4[8:1],,8,
2-6[8:1],1,{4}2,8-4[8:1],{8}8,2>5[8:1],
,2,7-3[8:1],8,{4}7,1-5[8:1],
{8}1,7<4[8:1],,7,1,2/7,3/6,5/4,
{4}2-6[8:1],{8}2,7-3[8:1],,7,1-5[8:1],5,
{4}1,7-3[8:1],{8}7,2-6[8:1],,2,
8-4[8:1],4,{4}8,3-7[8:1],{8}3,5-1[8:1],
,5,2-6[8:1],7,{4}2,7,
{8}1/2,3,,8/7,6-4-1[8:1]/1-3-6[8:1],8/7,{4}1b/6b,
8,{8}6,6/5,,3,6-4[8:1],2,
{4}6,2,{8}3,3/4,,6,
3-5[8:1],7,{4}3,7,{8}6,6/3,
,5,2v4[8:1],6,{4}2,6,
{8}3,3/6,,4,7v5[8:1],3,{4}7,
{8}2>3<4<5<6<7>8[2:1],,,8,{4}8>3[4:1],3<6[4:1],
6-1[4:1],1-4[4:1],4-7[4:1],7-3[4:1],
3>1[4:1],1-5[4:1],5<7[4:1],7-3[4:1],
3>1[4:1],1-5[4:1],{2}5pp5qq5b[8:5],
{4},,,,5/4,
{8}8/7,6/1,,3,6/3-5[8:1],3,
{4}3/6,7,{8}2/1,3/8,,8,
{4}1/8-3[8:1],8/1,4/5,{8}1/2,3/8,
,6,3/6-4[8:1],6,{4}6/3,2,
{8}7/8,6/1,,1,{4}8/1-6[8:1],1/8,
8<5[8:1],{8}8/3,B2/B3/E3,,7,{4}7/1>4[8:1],
1/8,2,1-5[8:1],1/6,
7-3[8:1],7/2,8>3[4:1],3<6[4:1],
6<1[4:1],1q5[4:1],5q1[4:1],1-5<7-3>1b[2:1],
,,,7-5[8:1],
7/1-3[8:1],1/8-4[8:1],8/2-6[8:1],2/7-1[8:1],
7/3-7[8:1],8/3,8-4[8:1],8<5[8:1],
8>3[8:1],8w4[8:1],8,2-6[8:1],
2/7-1[8:1],7/3-5[8:1],3/8-4[8:1],8/1-3[8:1],
1/7-3[8:1],7/1,2<6[4:1],6>2[4:1],
2-6[4:1],6pp2[8:3]*qq2[8:3],{16},,,,,,,,3b,
5,3,5,{4}2b/6bx,2>5[8:1],{8}2/6,7,
{4}8-4[8:1],2/8>3[8:1],8/6>3[8:1],6/2-6[8:1],
2/7,8-4[8:1],8/1,{8}3-7[8:1],7-5-2[16:3],
{4}3,8-4[8:1],8<6[8:1]/2-6[8:1],8-4[8:1]/2>4[8:1],
8/2,8<5[8:1],8/3>8[8:1],3/6>3[8:1],
6/1<6[8:1],1/5,4>1[8:1],4/5<8[8:1],
5,2-6[8:1],2/1-5[8:1],1/3,
2-5[8:1]/8-5[8:1],8/2,{8}7b/1b,{16}6,5,{8}6,2b/8b,
{16}3,4,{8}3,{16}6,4,7,3,{4}7<4[8:1],{8}7/3,2,
{4}1-5[8:1],7/1<6[8:1],1/3<6[8:1],3/7-3[8:1],
7/2,1-5[8:1],1/8,{8}6-2[8:1],2-4-7[16:3],
{4}6,1-5[8:1],1>3b[8:1]/7-3b[8:1],1-5b[8:1]/7<5b[8:1],
1/7,{8}2,2,{4}2>5[8:1],2/1,
7<4[8:1],7/8,1-5[8:1]/2-6[8:1],1/2,
8-4[8:1]/7-3[8:1],8/7,{8}2,2,7,7,
3,3,8,8,{16}4b,6,4,6,3bx,6,3,6,
2bx,6,2,6,1bx,6,1,6,{8}8b,{16}8/7,6x/1x,{8}2x/5x,6,
4/3,2,6/5,7,2/1,3,4/5,6,
7/8,1,2/8,3/7,5-1[8:1],5,3-7[8:1],3,
6-2[8:1],6,4-8[8:1],4,7-3[8:1],6,2-6[8:1],1,
8-4[8:1],7,1-5[8:1],2,8-6[8:1],6-2[8:1],{4}8,
1b-5b[8:1],{8}1b,{16}7,7,{8}8,6,1,5,
2,4,3,5,2>5[8:1],6,2<7[8:1],7,
2-5[8:1],5-8[8:1],{4}2,6b,{8}6,5,
4,3/6,{4}2/7,{8}1/2,3/8,4/7,8/7,
6/1,5/2,4/3,5/6,7/8,1/2,{4}3-6-8[8:1]/8-5-3[8:1],
{16},,,,1,7,2,6,{4}5bx-1[8:1]/3b>1[8:1],3b-7[8:1]/5b<7[8:1],
5b/3b,{8}8,1,2,3,{4}4b>2[8:1]/6b-2[8:1],
4b-8[8:1]/6b<8[8:1],6b/4b,{8}2>5[8:1],1<6[8:1],2,1,
{4}2-6[8:1],2x/1x,7x<4[8:1]/3>8[8:1],7x/3x,
7x-2[8:1]/3x-6[8:1],7b/3b,1s5[8:1],8b,
3/7,3/8,{8}2>5[8:1],1<6[8:1],2-6[8:1],1-5[8:1],
2,1,{4}2w6[8:1],2,{8}7x<4[8:1],8>3[8:1],
7-3[8:1],8-4[8:1],7,8,{4}7w3[8:1],7,
{8}1-5[8:1],8-4b[8:1],1>4[8:1],8<5b[8:1],1-6[8:1],8-3b[8:1],1,8,
{4}1b,7b/2b,{8}3/6,3/6,{16}3,6,4,5,
3,6,4,5,3,6,4,5,{2}1b-5b[4:5],
{4},,,,,1b-5[8:1]/8b-4[8:1],
8b/1b,{8}7-3[8:1],3-1-6[16:3],
{4}7,4-8[8:1],4>2[8:1]/6-2[8:1],4-8[8:1]/6<8[8:1],
4/6,4>1[8:1],4/7<4[8:1],7/2<7[8:1],
2/5>2[8:1],5/1,8<5[8:1],8/1>4[8:1],
1,6-2[8:1],6/5-1[8:1],5/7,
6<1[8:1]/4>1[8:1],4/6,{8}3b/5b,{16}2,1,{8}3,6b/4b,
{16}7,8,{8}6,{16}2,8,3,7,{4}3>8[8:1],{8}3/7<4[8:1],6,
{4}7/2,1-4[8:1]/2-4[8:1],1-7[8:1]/2-7[8:1],2-6[8:1]/1-5[8:1],
2/1,4-8[8:1],5/4,{8}2-6[8:1],1,
{4}2,8-5b[8:1]/7-5b[8:1],8-2b[8:1]/7-2b[8:1],7-3b[8:1]/8-4b[8:1],
7/8,2-6[8:1],2/8-4[8:1],8/3-1[8:1],
3/7-5[8:1],7/4-8[8:1],4/6-2[8:1],6/3<6[8:1],
3/7>2[8:1],7/3-7[8:1],{8}3/5-1[8:1],5,2-6[8:1],2,
8-4[8:1],8,2-6[8:1],2,{4}5b-7>8v2b[4:1]*-3>2v8b[4:1],5b,
{16},,,,7,1,6,2,{4}5b>2[8:1],{8}7/5<8[8:1],6,
{4}5/3,{8}7-3[8:1],6,{4}7/1-5[8:1],1/8-4b[8:1],
8/1,2b-6[8:1],{8}1/2>5[8:1],8,2,7-3[8:1],
3<4-8[16:3],7,2,1,{4}1<6[8:1]*>4[8:1],1,
7b/2b,{8}6-1[8:1],7,{4}6/4-8[8:1],4/5<8[8:1],
5/2>5[8:1],2/7-3[8:1],7/1-5[8:1],1/7q3[8:1],
7/4-8[8:1],4/1-5[8:1],1,7<4[8:1]/3>8[8:1],
7/3,7v2[8:1]/3v6[8:1],7/3,{8}1,1,
{16}1b-5b[8:1],8,3,6,{4}1bx>4[8:1],1b-5[8:1],{8}7/1<6[8:1],8,
{4}1/3,{8}3-7[8:1],2,{4}3/5-1[8:1],5/4-8b[8:1],
4/5,6b-2[8:1],5/6<1[8:1],{8}6,3-7[8:1],
7>8-4[16:3],3,6,5,{4}5-8[8:1]*-2[8:1],5,
6b/3b,{8}3-8[8:1],2,{4}3/5-1[8:1],5/4>1[8:1],
4/7<4[8:1],7/2-6[8:1],2/8-4[8:1],8/2p6[8:1],
2/5w1[8:1],5,1bx>5b[4:1],5b<1b[4:1],
1b>5b[4:1],5b<8b[4:1],1b,{32}1b,2,3,4,5,6,7,8,
1,2,3,4,5,6,7,8,{4}1bx/5b,{8}2b/7b,{16}2,4,{8}3,8,
{16}7,5,{8}6,2>5[8:1],1,{4}2,{8}8b,{16}7,5,
{8}6,1,{16}2,4,{8}3,7<4[8:1],8,{4}7,
{8}3b,{16}2,1,{8}3,5,{16}7,8,{8}6,3-7[8:1],4,
{4}3,{8}5b,{16}7,8,{8}6,4,{16}2,1,{8}3,
2/7,1/8,{16}1,8,3,6,{8}1b,{16}2,4,{8}3,8,
{16}7,5,{8}6,1-5[8:1],2/8,{4}1,{8}8b,{16}7,5,
{8}6,1,{16}2,4,{8}3,8-4[8:1],7/1,{4}8,
{8}1b,{16}3,5,{8}4,8,{16}6,4,{8}5,5-1[8:1]/4-8[8:1],6/3,
{4}5/4,{8}7/3,{16}5,4,{8}6,2,{16}4,5,{8}3,
1,5,{32}1,2x,3x,4x,5x,6x,7x,8x,{4}1x>3-7[4:1],{8}7x<5[8:1],5-1[4:1],
,1>3[8:1],{4}3-7[4:1],7x,8x<6-2[4:1],
{8}2x>4[8:1],4-8[4:1],,8<6[8:1],{4}6-2[4:1],2x,
4x>2-6b[4:1],{8}6x<8b[8:1],8-4b[4:1],,4>2b[8:1],{4}2-6b[4:1],
6x,5x<7-3b[4:1],{8}3x>1b[8:1],1-5b[4:1],,5<7b[8:1],
{4}7-3b[4:1],3x,{8}1b,{16}2,4,{8}3,8,
{16}7,5,{8}6,2>5[8:1],6<1[8:1],2,6,4b,{16}3,4,
{8}2,5,{16}6,5,{8}7,7<4[8:1],3>8[8:1],7,3,
7b,{16}2,1,{8}3,5,{16}7,8,{8}6,1>4[8:1],8<5[8:1],
1,8,2b,{16}7,8,{8}6,4,{16}2,1,{8}3,
2-5[8:1]/7-4[8:1],1/8,{4}7/2,{16}2,1,2,1,{8}2,{16}7,8,
7,8,{8}7,4-8[8:1]/3-7[8:1],2/5,{4}4/3,{16}6,5,7,5,
{8}6,{16}3,4,2,4,{8}3,5-1[8:1]/6-2[8:1],7/4,{4}5/6,
{16}1bx,6,2,5,{8}3,{16}8bx,3,7,4,{8}6,{16}2b,7,4,5,
{4}1b,{16}2b,1,3,8,4,7,5,6,4,5,3,6,
{8}7b-4-2b[4:1]/2b-5-7b[4:1],8b/1b,{4}7b/2b,
E
