&title=signification
&artist=Rephonics
&first=0
&des=luvlily
&lv_5=13
&inote_5=(142)
{1},
{16}3h[4:1]/5h[4:1],,,,,,3/5p4[8:11],,,,,,
{16},,,,,,,,,,,,
{16},,,,,,,,1h[2:1],,,,
{16},,{24}3,4,5w1[24:4],{16}6,,1,,,,,,
{16}3h[4:1]/7h[4:1],,,,,,3/7>3[8:9],,,,,,
{16},,,,,,,,,,,,
{16},,,,7h[8:1],,,,3h[8:1],,,,
{24}8,2,8,2,8,2-5[24:4],{16}8-5[8:1],,1,,,,,,
{16}6h[4:1]/4h[4:1],,,,,,6/4q5[8:11],,,,,,
{16},,,,,,,,,,,,
{16},,,,,,,,8h[2:1],,,,
{16},,{24}6,5,4w8[24:4],{16}3,,8,,,,,,
{16}6h[4:1]/2h[4:1],,,,,,2/6<2[8:9],,,,,,
{16},,,,,,,,,,,,
{16},,,,6h[8:1],,,,2h[8:1],,,,
{24}7,1,7,1,7,1v2[24:4],{16}7v6[8:1],,8,,,,,,
{16}3h[4:1]/5pp4[8:3],,,,,,4>5[8:11],,1h[8:1],,,,
{16}1h[8:3],,,,,,,,1h[8:1],,,,
{16}1h[8:3],,,,,,,,1h[8:1],,,,
{16}1h[4:1],,{24}3,4,5-1[24:4],{16}6-1[8:1],,1,,,,,,
{16}3qq5[8:3]/8h[4:1],,,,,,5V74[8:7],,7h[8:1],,,,
{16}7h[8:3],,,,,,,,7h[8:1],,,,
{16}7,,,,6h[8:1]/5h[8:1],,,,2h[8:1]/3h[8:1],,,,
{24}7,1,7,1,7,1-3[24:4],{16}7-3[8:1],,8,,,,,,
{16}6h[4:1]/4qq5[8:3],,,,,,5<4[8:11],,8h[8:1],,,,
{16}8h[8:3],,,,,,,,8h[8:1],,,,
{16}8h[8:3],,,,,,,,8h[8:1],,,,
{16}8h[4:1],,{24}6,5,4-8[24:4],{16}3-8[8:1],,8,,,,,,
{16}2-5[8:1]/6-3[8:1],,,,,,,,,,{24}1-5[24:5],2,7-3[8:1],
{16}6,,8,,,,,,2<6[4:1]/6<2[4:1],,,,
{16}2qq7[2:1],,,,,,,,,,,,
{16}5h[8:3],,,,,,6,,4b/7b,,,,
{16}2h[8:1],,3h[8:5],,4,,5,,6,,7,,
{16}2h[8:1],,3h[8:1],,4h[8:4],,5,,6,,7,,
{16}2h[8:1],,3h[8:1],,4h[8:1],,5h[8:3],,6,,7,,
{16}1h[8:1],,2h[8:1],,3h[8:1],,4h[8:1],,5h[8:1],,6,,
{16}2h[8:1],,3h[8:5],,4,,5,,6,,7,,
{16}2h[8:1],,3h[8:1],,4h[8:4],,5,,6,,7,,
{16}2h[8:1],,3h[8:1],,4h[8:1],,5h[8:3],,6,,7,,
{16}1h[8:1],,2h[8:1],,3h[8:1],,4h[8:1],,5h[8:1],,6,,
{16}2h[8:1],,3h[4:1],,4,,5h[8:1],,6h[4:1],,7,,
{16}2h[8:1],,3h[8:1],,4h[4:1],,5,,6h[8:1],,7,,
{16}2h[4:1],,3,,4h[8:1],,5h[4:1],,6,,7h[8:1],,
{16}1h[8:1],,2h[8:1],,3h[4:1],,4,,5h[8:1],,6h[8:1],,
{16}2h[8:1],,3h[4:1],,4,,5h[8:1],,6h[4:1],,7,,
{16}2h[8:1],,3h[8:1],,4h[4:1],,5,,6h[8:1],,7,,
{16}2h[4:3],,3,,4,,5,,6,,7,,
{16}1h[4:3],,2,,3,,4,,5,,6,,
{16}2h[16:3],,3h[8:1],,4h[16:5],,5,,6h[8:1],,7,,
{16}2h[16:5],,3,,4h[8:1],,5h[16:5],,6,,7h[8:1],,
{16}2h[16:3],,3h[4:1],,4,,5h[16:3],,6h[4:1],,7,,
{16}1h[16:7],,2,,3,,4h[8:3],,5,,6,,
{16}2h[16:3],,3h[8:1],,4h[16:5],,5,,6h[8:1],,7,,
{16}2h[16:5],,3,,4h[8:1],,5h[16:5],,6,,7h[8:1],,
{16}2h[16:3],,3h[4:1],,4,,5h[16:3],,6h[4:1],,7,,
{16}1h[16:7],,2,,3,,4h[8:3],,5,,6,,
{16}2h[4:1],,3h[16:1],,4h[16:3],,5h[16:3],,6h[4:1],,7,,
{16}2h[16:3],,3h[4:1],,4h[16:1],,5h[16:5],,6h[16:1],,7,,
{16}2h[16:5],,3,,4h[4:1],,5h[16:1],,6h[16:3],,7,,
{16}1h[16:3],,2h[16:3],,3h[16:3],,4h[4:1],,5,,6,,
{16}2h[4:1],,3h[16:1],,4h[16:3],,5h[16:3],,6h[4:1],,7,,
{16}2h[16:3],,3h[4:1],,4h[16:1],,5h[16:5],,6h[16:1],,7,,
{16}2h[4:3],,3,,4,,5,,6,,7,,
{16}1h[4:3],,2,,3,,4,,5,,6,,
{16}2b-8[8:1],,3,,4,,5,,6,,7,,
{16}2-8[8:1],,3,,4-2[8:1],,5,,6,,7,,
{16}2-8[8:1],,3,,4-2[8:1],,5,,6-4[8:1],,7,,
{16}1qq2[8:3],,2,,3,,4,,5,,6,,
{16}2-8[8:1],,3,,4,,5,,6,,7,,
{16}2-8[8:1],,3,,4-2[8:1],,5,,6,,7,,
{16}2-8[8:1],,3,,4-2[8:1],,5,,6-4[8:1],,7,,
{16}1qq2[8:3],,2,,3,,4,,5,,6,,
{16}2-7[8:1],,3,,4,,5,,6,,7,,
{16}2-7[8:1],,3,,4-1[8:1],,5,,6,,7,,
{16}2-7[8:1],,3,,4-1[8:1],,5,,6-3[8:1],,7,,
{16}1qq2[8:3],,2,,3,,4,,5,,6,,
{16}2-7[8:1],,3,,4,,5,,6,,7,,
{16}2-7[8:1],,3,,4-1[8:1],,5,,6,,7,,
{16}2-7[8:1],,3,,4-1[8:1],,5,,6-3[8:1],,7,,
{16}1qq2[8:3],,2,,3,,4,,5w1[4:1],,6b,,
{16},,,,,,,,,,,,
{16},,,,,,,,,,,,
E
