&title=Pangaea
&artist=sasakure.UK
&first=0
&des=从水下第一个生命的萌芽开始
&lv_5=14
&inote_5=(118){4},,,,
{64}3^8[4:4],,,,,,,,
,,,,,,,,
,,,,,,,,
,,,,,,,,
,,,,,,,,
,,,,,,,,
,,,,,,,,
,,,,,,,,
,,,,,,,,
,,,,,,,,
,,7^4[4:4],,,,,,
,,,,,,,,
,,,,,,,,
,,,,,,,,
,,,,,,,,
,,,,,,,,
,,,,,,,,
,,,,,,,,
,,,,,,,,
,,,,,,,,
,2^7[4:4],,,,,,,
,,,,,,,,
,,,,,,,,
,,,,,,,,
,,,,,,,,
,,,,,,,,
,,,,,,,,
,,,,,,,,
,,,,,,,,
,,,,,,,,
,,5^8[4:4],,,,,,
,,,,,,,,
,,,,,,,,
,,,,,,,,
,,,,,,,,
,,,,,,,,
,,,,,,,,
,,,,,,,,
,,,,,,,,
,,,,,,,,
,,3h[64:30],,,,,,
,,,,,,,,
,,,,,,,,
,,,,,,,,
8h[64:30],,,,,,,,
,,,,,,,,
,,,,,,,,
,,,,,,5,,
,,,,,,,,
,,,,,,,,
,,2h[64:28],,,,,,
,,,,,,,,
,,,,,,,,
,,,,,,7h[64:32],,
,,,,,,,,
,,,,,,,,
,,,5,,,,,
,,,,,,4,,
,,,,,,,,
,,,,,,,,
,3h[64:29],,,,,,,
,,,,,,,,
,,,,,,,,
,,,,,,8h[64:31],,
,,,,,,,,
,,,,,,,,
,,,,,,,,
,,,,,5,,,
,,,,,,,,
,,,,,,,,
7/3,,6^1[4:7],,5^2[64:110],,4,,
,,,,,,,,
{4},,,,
,,,,
{16}3b/7b,,4,5,,6,5,7,3^8[12:1],,,,6,,,,
4/3,,5,4,,6,5,7,4^1[12:1],,6,,5,,,,
2,,5h[16:1],4,,6h[16:1],5,,3,,5h[16:1],4,,6h[16:1],5,,
3,,4-7[12:1],2,,,1-5[12:1],,,,6^1[12:1],,,,3h[16:1],,
2,,4,3,5-1[12:1],,6/4,,,,3,4,2,,1h[16:3]/6,,
,{48}7h,6,,,,,{16}2,8,8,4,4,{48}7h,6,,,,,{16}2,4,,3,3,5,
6/4,,3,2/4,,8,7/1h[8:5],,,,,,,,,,
{24}8h,7,6,5,4,3,2,1,8,7,6,5,1h,8,7,6,5,4,3/8^3[12:1],,,,,,
{16}7b,,6,5,,7,3,,2^5[12:1]/5,,6,,7,,8,,
1/5,,3,7,,1,5,,7^4[12:1]/4,,3,,2,,1,,
8/4,,1h[16:1],5,,2h[16:1],6,3,8/4,,7h[16:1],3,,6h[16:1],2,5,
1,1,4,3,5,,2^5[12:1],7,2^7[12:1],,,,,,5,6,
7/4,,3,4,,2,6,,7^4[12:1]/4,,3,,2,,1,,
8/4,,6,2,,8,4,,2^5[12:1]/5,,6,,7,,8,,
1/5,,8h[16:1],4,,7h[16:1],3,6,1/5,,2h[16:1],6,,3h[16:1],7,4,
8-5[12:1]/5-8[12:1],,,,8-4[12:1]/5-1[12:1],,,,8-3[12:1]/5-2[12:1],,,,5/8,,,,
{16}2b/5b,,1^4[12:1],6,8,,{8}1/8h[16:5],,7^4[12:1],1,2h[16:5]/7b,
{8},3^6[12:1],8,7h[16:5]/3,,6^1[12:1],2,3h[16:5]/6b,
,5^2[12:1],6,7/5,,1-4[12:1]/6-1[12:1],,6b/1-5[12:1],
,3^6[12:1],,3^8[12:1]/7b,,3b/5^8[12:1],,{48}1h/5b,2h[48:23],,,,,
{8},,4,3^6[12:1],,7,8-5[12:1],,
4,3^6[12:1],2,1-6[12:1],,5,5,,
{16}3,4,2-5[12:1],5,1,,2b/6,,,,2-6[12:1],5,1,,2b/6,,
,,2-7[12:1],5,1,,2^5[12:1]/6^1[12:1],,,,2b/6b,,,,3/7h[8:2],,
{16}1b,,2h,3,7h,6,2h,3,6h,5,2h,3,5h,4,2h,3,
4h,,3,5,2-5[12:1],6,1,,,,7,7,3,3,8h[16:2],,
1h,2,7h,6,2h,3,7h,6,3h,4,7h,6,4h,5,7h,6,
5h,,6,3,7-4[12:1],2,8,,,,2,2,6,6,1h[16:2],,
8h,7,2h,3,7h,6,3h,4,6h,5,4h,5,6h,5,4h,5,
6h,,7,4,8-4[12:1],4,1,,,,3,3,7,7,1h[16:4],,
6h,5,4,3,2h,3,5h,4,3h,4,6h,5,4h,5,7h,6,
4h,,2,5,1,6,8,7,1h[8:1],,5h[16:1],3,,7h[16:1],1,,
{8}3b/5b,2-5[12:1]/6-3[12:1],1/7,2b,,7-4[12:1]/3-6[12:1],8/2,7b,
,3-6[12:1]/6-3[12:1],2/7,3b,,7-3[12:1]/4,8/3-7[12:1],7b/4h[8:3],
,,6-2[12:1],,3,3-7[12:1],,5-1[12:1],
,4-8[12:1],,7-3[12:1],,1,1^6[12:1],,
3b,2-5[12:1],1,2b/6,,4-8[12:1]/7-4[12:1],3/8,7b/4,
,3-6[12:1]/6-2[12:1],2/7,3b/6,,8-3[12:1]/4,7/3-7[12:1],8b/4h[8:9],
,,{48}6h,5,,,,,,,,,,,
7h,6,,,,,,,,,,,
8h,7,,,,,,,,,,,
{24}1h,8,7,6,5,4,3,2,1,8,7,6,4h,3,2,1,8,7,6,5,4,3,2,1,
{16}6b/8,,3,4,,2,6^3[12:1],5,6^1[12:1],,,,,,,,
3/4,,6,2,,8,4^7[12:1],6,2^7[12:1],,,,,,,,
6^1[12:1],,4^1[12:1],5,,,,,5^8[12:1],,3^8[12:1],4,,,,,
4^7[12:1],3^8[12:1],4,3,,,,,7^4[12:1]/8^3[12:1],,,,,,,,
5/6,,3,4,,2,8,5h[16:5],7^4[8:1],,,,,,,,
3/2,,5,4,,6,2,8h[16:5],3^6[8:1],,,,,,,,
7^2[8:4]/8^5[8:4],,,,,,,,,,,,,,,,
{12}2`3h,2`4h,2`5h,{8}2`6h,3`7h,4^1[12:1]/8h,,{48}7h,6,,,,,,,,,,,
{8}2-5[12:1]/6-1[12:1],,2b/6b,,{48}2-5[12:1]/7h,6,,,,,{16}1,5,2/6^3[12:1],,,,
{16}2,,1,,2/4,,5,,3/6,,2,4,1-5[12:1],,5,,
1^4[12:1]/6^1[12:1],,,,6b/1b,,,,3/4,2,,6,5/7^4[12:1],,3,,
2,,1,4,2/5,,3,5,2/4,,1,6,2/7,,3,7,
2-5[12:1]/6-1[12:1],,,,2b/6b,,,,{48}2-6[12:1]/7h,6,,,,,{16}1,5,2^5[12:1]/6,,,,
{8}1-5[12:1]/2b,,8-4[12:1]/1b,,8^3[12:1]/7^4[12:1],,7b/8b,,
{16}3b/4b,,2,,6^1[12:1]/5,7,,3h[16:3],,,,,6^1[12:1]/4,7/3h[16:2],,,
{24},,,2h,3,4,8h,7,6,2h,3,4,7h,6,5,2h,3,4,6h,5,4,2h,3,4,
{16}6b,6,5,7,2,2,1,3,7,4,6,5,{32}8-4[12:1],7,6,5,4,3,2,1,
{16},,3,3,7,4,6,5,8,3,6,5,{32}1-5[12:1],2,3,4,5,6,7,8,
{16},,6,6,2,5,3,4,1,7,5,6,{32}4-8[12:1],3,2,1,8,7,6,5,
{16},,6,6,2b,5,5,5,1b,4,4,4,{32}8-4[12:1],7,6,5,4,3,2,1,
{16}7-3[12:1]/8b,,,,7b/1-5[12:1],,,,1b/7-3[12:1],,8,1,2-5[12:1],,,,
{16}1-5[12:1]/2b,,,,8-5[12:1]/1b,,,,8-3[12:1]/7-3[12:1],,,,7b/8b,,,,
{16}3b/4b,,2,,6^1[12:1]/5,7,,3h[16:3],,,,,6^1[12:1]/4,7/3h[16:2],,,
{24},,,2h,3,4,8h,7,6,2h,3,4,7h,6,5,2h,3,4,6h,5,4,2h,3,4,
{16}5b/6b,,7,,3^8[12:1]/4,2,,6h[16:3],,,,,3^8[12:1]/5,2/6h[16:2],,,
{24},,,7h,6,5,1h,2,3,7h,6,5,2h,3,4,7h,6,5,3h,4,5,7h,6,5,
{12}3b`4h,3b`5h,3b`6h,{8}3b`7h,4b`8h,5^2[12:1]/1^6[12:1],,5-1[4:9]/1h,,
{4}1b,,,,
,,,,
,,E
