&title=Zany Arcadia "E"
&artist=天束 vs. siromaru
&first=0
&des=神秘谱师
&clock_count=4
&lv_5=14+
&des_5=
&inote_5=(180)
{8},,,,,,
{24}1x,8x,1x,8x,1x,8x,
{16}2xb-5[8:1],,,,,,1,,1-6[8:1],,,,,,2,,
2>4[8:1],,,,6<8[8:1],,,,5-1[8:1],,,,6,,,,
7h[8:4],,,,,,1,,1-4[8:1],,,,,,6,,
6<8[8:1],,,,2>4[8:1],,,,1-5[8:1],,,,2,,,,
3b,,7,6,5,,3,2,1,,14,,2/5,,3/6,,
4/7,,8,7,6,,4,3,2,,1/5,,2/6,,3/7,,
4/8h[8:2],,,,,,3,,2/6,,1/5,,4/8h[4:1],,,,
,,5,,26,,37,,8,4,6,2,8h[8:2],,,,
,,,,1b<4[8:3]/2h[8:4],,,,,,,,,,,,
2,3,4,5,8,7,6,5,3,2,18,,27,,45,,
1b/6b,,8,7,8,7,8,7,1,6,1,6,1,6,1,6,
2,5,2,5,2,5,2,5,3h[8:1],,6h[8:1],,2h[8:1],,4h[8:1],,
1,,3,4,3,4,3,4,2,5,2,5,1,6,1,6,
8,7,1,7,2,7,3,7,4,,7h[8:1],,1h[8:1],,5h[8:1],,
3,,2,4,2,4,2,4,2,,3/5,,4/6,,5/7,,
5,7,4,6,3,5,2,4,1,5,2,6,3,7,4,8,
5b,,1,8,7,6,5b/4b,,7b-4[8:1]/3b,,1,1,,,2b,,
2b-5b[16:1],,,8b-4b[16:1],,,1b,,1b>5[16:3],,5,,5,6,7,8,
1h[8:2],,,,,,,,3h[8:2],,,,,,,,
7h[8:2],,,,,,,,4h[8:2],,,,,,,,
6h[8:2],,,,,,,,2h[8:2],,,,,,,,
8h[8:2],,,,,,,,3h[8:2],,,,,,,,
5h[8:2],,,,2pp5[8:4],,,,6,,,,7,,,,
8qq5[8:4],,,,4,,,,3,,,,2,,,,
1bh[8:2],,,,,,2/8,3/7,4-8[8:1]/6,,,,2/4,,,,
1,7,1,6,1,5,1,4,1>5[16:3],,,,5,6,7,8,
1<6[8:1]*-6[8:1],,,,1>4[8:1]*-4[8:1],,,,1w5[8:1],,,,1b,,,,
2,4,2,5,2,6,2,7,2,8,2,1,3,8,4,7,
{24}5xb,6x,5x,6x,5x,6x,{16}5x-1[8:1],,4,,{16}35,,,,B8,,B7,,
B6,,,,{12}E2h[12:2],B2h[12:1],,B7h[12:2],B6h[12:1],,D3h[12:2],A3h[12:1],,
{16}5x,4x,3x,2x,1x,8x,7x,6x,5x,4x,3x,2x,1x,8x/4x,7x/3x,6x/2x,
5xpp7[8:1]/1xpp3[8:1],,,,,,,,2x-5[8:1]/6x-1[8:1],,,,2b/6b,,,,
3-8[8:1],,,4,4/3,,,,6-1[8:1],,,5,5/6,,,,
2-5[8:1],,,1,1/2,,,,1/8,,2/6,,7/4,,5/2,,
1,5,1,6,1,7,1,8,1,,3/8,,2/5,,4/7,,
8,4,8,3,8,2,8,1,{24}7xb,8x,7x,8x,7x,8x,7x,,,1,,,
{16}2/5,,3,4,3,,7/4,,6,5,6,,2/4,,3,4,
2,,5/7,,6,5,7,,2/1,,3/4,,5/6,,7/8,,
2/5,,3,4,1,,4/7,,6,5,8,,2/6,,4,5,
2,,3/7,,5,4,7,,2/1,,3/4,,5/6,,7/8,,
1,2,3,4,8,7,6,5,4,,1/5,,2/6,,3/7,,
4/8,7,6,5,1,2,3,4,5,,3/7,,2/6,,1/5,,
4/8,1,2,3,4,5,6/2,,4/8,3,2,1,8,7,6/2,,
4-1[8:1]/8,,,,7-3[8:1]/4,,,,2/7,,1,1,4<4[8:6],2,5,3,
6,,,,,,,,,,,,,,,,
4>1[8:1]/8<5[8:1],,,,8v2[8:1]/4v6[8:1],,,,8z4b[8:1],,,,3b,,,,
2,4,3,7,5,8,2,6,1-5[8:1],,,,3/1,,,,
{24}2,4,2,4,2,4,2,4,2,4,2,4,{16}1h[8:1],,8,7,26,3,4,5,
8h[8:1],,4,7,3,6,2,5,1w5[8:1],,,,1,,,,
2b-5[16:1],,,8b-4[16:1],,,3b,,1b,,7,7,5,6,4,5,
3,4,2,5,1,5,2,6,3,7,4,8,5,1,4,8,
3/7,2,1,8,7/3,6,5,4,3b/7b,,,,{24}2-5[8:1],1,2,1,2,1,
2b,,,,,,7-4[8:1],8,7,8,7,8,7b,,,{16},1b,,,4b/2b,,3b/5b,
,,7b/8b,,,7b/5b,,4b/6b,,3,3,5,4,6,5,
7,5,6,2,4,1,7,3,8-4[8:1],,,,6/8,,,,
{24}7,5,7,5,7,5,7,5,7,5,7,5,{16}8h[8:1],,1,2,73,6,5,4,
1h[8:1],,5,2,6,3,7,4,8w4[8:1],,,,8,,,,
7b-4[16:1],,,1b-5[16:1],,,6b,,8b-4[16:1],,,3b-8[16:1],,,5b,,
7b,,6,6,2,5,1,7,3,,8b,,4b/6b,,3b/5b,,
1-5[8:1],6,7,8,4-7[8:1]/1,3,2,1,4b,,1b,,1b-5b[8:1],,,,
6b/1b,,7,7,3,,8<5[8:1],,,,{24}4,3,2,1b,,,,,,
{12}5b/1b,,2b/4b,,1b/3b,,4b/8b,,2b/6b,,1bh[12:20]/7b-2-5-8-3<6<2b[12:23],,
{8},,,,,,,,
,,,,,,,,
3h[8:4],,,,5-1[8:1],,5/6,,
{16}7,6,5,4,1,2,3,4,8,,7,,6/2,,3,,
8<5[8:1]/4,,,,3,,2-6[8:1],,,,2,,4>1[8:1],,,,
4,,7-3[8:1],,,,7,,1w5[8:1],,,,1,,,,
2>5[8:1],,,,7,,8-4[8:1],,,,8,,2<7[8:1],,,,
2,,5-1[8:1],,,,5,,8w4[8:1],,,,8,,,,
2,1,2,1,2,8,3,7,4,6,4,5,3,6,2,7,
1,8,3x,6,2x,7,4x,5,1x,6,3,4,8x,7,2,5,
4x,6,5,7,4,8,3,7,2,6,1,5,2,6,3,7,
4bh[8:6],,,,5b,,,,6b,,,,7b,,,,
{32}8b,7,6,,{16}2,4,3,6,5b,7b,1b,8,2,7,5,6,3b,4b,
{32}1b,2,3,,{16}5,,{32}1b,8,7,,{16}4,,{32}1b,2,3,,{16}5,,{32}1b,8,7,,{16}4,,
2b,4,3,5,4,6,5b,7,2b,8,3,7,4,6,3,5,
2bh[8:2],,,,{32}8b,7,6,5,,2b,3,4,{16}5,,8bh[8:1],,
4,6,8,2,4b,,7,3,6,4,5b,1,8b,,7/2,,1b,1b,1b,1b,
1b,,8,,{32}1/2b,3,4,5,6,,,,,7b/8,6,5,4,3,,,1/2b,3,4,5,6,7,8,1,
{12}6b/2b,,7/4,6,3,2b/4b,1b/5b,,2/4,3,6,7b/5b,8b/4b,,7,6/8,,3,2/4,,1h[12:2],,5h[12:2],,
3h[12:2],,7h[12:2],,2,,2/4,3/5,4/6,5/7,6/8,6/8h[12:4],
{16},,,,1b,2,3,4,5,6,7,8,1,2,3,4,
5b-2[8:1]/1b-6[8:1],,,,,,,,3b-8[8:1]/7b-4[8:1],,,,,,,,1b/5b,,,,2,3,4,5,6,7,8,1,5,6,7,8,4,5,6,7,3,4,5,6,2,3,4,5,1,2,3,4,C,
,
