&title=Meta-Mysteria
&artist=DJ Noriken
&first=0
&des=DJ-ZiNG
&lv_5=14+
&des_5=DJ-ZiNG
&inote_5=
(205){4},,,,{1}5/4>5[4:13],
E7,
{2}E1,E2,
{1}E3,
4/5<4b[4:13],
E3,
{2}E1,E8,
{1}Cfh[4:3],
{8}3V17[8:1],7V13[8:1],6,5<8[8:1],,5>2[8:1],,5-7-4-8-3-1[8:5],
,,,,,,{4}Cf,
{8}6-8-2[8:1],2V86[8:1],3,4>1[8:1],,4<7[8:1],,4-2-5-1-6-8b[8:5],
,,,,,,{4}Cf,
{8}7/5,6,6,3/5,4,4,{4}3b/5b,
{8}2/4,3,3,6/4,5,5,{4}6b/4b,
5/6b-8[8:1],4,5/3b-1[8:1],6,
{1}7<6-3>2-7b[2:1]*-4>3-8<7[2:1],
{32}1b-7-3-5[1:3],B1f,C,B5,{1},,,{4},,,{16},,{4}4h[4:1]/3h[8:1],
B3,3h[4:1]/5h[8:1],B5,
6h[4:1]/4h[8:1],B4,6h[8:1]/5h[4:1],B6,
5h[4:1],{8}6,4,{4}5,3s7[4:1],
7s3b[4:1],{16},,,,,,,,6,3,6,3,
{8}6x/3xh[4:1],5,4,2/3x,{16}3,1,{8}3,1/3x,{16}3,8,
{8}3,8/3x,{16}3,7,{8}3,7/3xh[4:1],6,6,3/6xh[4:1],
4,5,6x/7,{16}6,8,{8}6,6x/8,{16}6,1,{8}6,
6x/1,{16}6,2,{8}6,6/2,{16}6,3,{8}6-1[8:1],4/6,3,
{16},2xh[16:1],,,1xh[16:1]/6xh[16:1],,,8xh[16:1]/2xh[16:1],,,{8}5xh[16:1]/3xh[16:1],{16},6xh[16:1]/1xh[16:1],,,6xh[16:1]/4xh[16:1],
,,7xh[16:1]/1xh[16:1],,,{8}8xh[16:1]/3xh[16:1],{16},5xh[16:1]/3xh[16:1],,,6xh[16:1]/1xh[16:1],,,6xh[16:1]/5xh[16:1],
,,{8}8/7<4[8:1],{4}1,{8}2-4[8:1],1,{4}8,
5xv8-6[8:3]*v2-4b[8:3],,,B5,
{1}Cfh[2:3],
{4}B6,B7,{2}B8,
{8}7-5[8:1],3V17[8:1],7-5-3[4:1],3,{2}4h[4:1],
2-7-1[16:3],5v8<7[16:3],
2b-5[8:1],6-8[8:1]*-2[8:1],
{16}1,8,1,8,{8}1,7,{4}7b/2b-5[8:1],2,
{8}7<4[8:1],8,1,2>5[8:1],1,8,7>2[8:1],6,
5,4<7[8:1],3,2,{4}1>4>1[2:1],8<5b[4:1],
,,5b/1b,{12}1,5,3,
{4}7h[4:1],{12}4,8,2,{4}6h[4:1],{12}3,7,1,
{4}5h[4:1],{12}4,8h,2,6h,4,1h,3,7h,5,
{2}5b-2[8:1]*-8[8:1],{4}1bv6[8:1]*v4[8:1],Cf,
5,{12}8,4h,6,{4}2h[4:1],{12}7,1,5,
{4}3h[4:1],{12}8,2,6,{4}4h[4:1],{8}5,6,
{4}6-1[8:1],2-5[8:1],{8}8,7,{4}6,
{8}E7,C,{4}E3,{12}6b,5b,4b,5b,4b,3b,
{4}Cf,{8}4/3h[16:1],3h[16:1],1/3h[16:1],3h[16:1],5/3h[16:1],3h[16:1],
8/3h[16:1],2h[16:1],5/1h[16:1],8h[16:1],4/7h[16:1],6h[16:1],{4}5/3,
{8}7V51[4:1],7,1,2,3V15[4:1],3,8,7,
6,6,4/6,3,{2}5/2v5[8:1]*p6[8:1],
{4}B6f,{8}5/6h[16:1],6h[16:1],8/6h[16:1],6h[16:1],4/6h[16:1],6h[16:1],
1/6h[16:1],7h[16:1],4/8h[16:1],1h[16:1],5/2h[16:1],3h[16:1],{4}3/6,
{8}2V48[4:1],2,7,6,5<8[8:1],5,1,2,
{4}3b/1b,{24}3,4,3,5,{48},{16}4,5b,4,6,4,{24}6b,5,6,4-1[8:1],,,{4}5,
A1f,{8}8-4[8:1],2-6[8:1],8<5[8:1],2,
{4}8,{8}4-2-8[16:3]*>3-1[8:1],5,{4}4-6-8[16:3]*<5-7[8:1],4,
{8}1,2,3/8,8,7,6,5/2,3,
{4}4bh[8:1]/7bh[8:1],5bh[8:1]/2bh[8:1],{8}4/6,1/7,5/3,8/2,
{2}1b<6[8:1]*>4[8:1],{8}5,{16}6,4,,5,{8}3,
{2}8b-5[8:1]*-3[8:1],{8}4,{16}3,5,,4,{8}6,
{32}7x/3x,6x/2x,{16}1x/5x,,,1,5,2,6,7/3,,,4/6,,,{8}7/5,
{12}7b,5,5,6b,4,4,5b,3,3,4b,2,2,
{1}4b/2b-6-8-4<5-7>8>1q2[4:11],
,,{4},,{16}2b,
8b,4b,5b,1b-5[16:1],7b,3b,6b,
{1}1b/Cf,
{4},,,,,E3,
{8}B8,B7,{4}B6,
,E7,{8}1,2,{4}3h[1:3],
B3,B2,B1,B8,
B7,B6,B5,B4,
B3,B2,B1,8-4[8:1],
8b/C,{8}6-1[8:1]/2-5[8:1],6/2,{4}6b/2b/B7f/B3,{16}4x,3x,2x,1x,
{4}8x/5xh[4:1],1,2/5h[4:1],3,
4/5h[4:1],{8}4,5,4,{32}5b,4,6,5,,,,,{8}6,
{4}5/7,{8}5h[16:1],6h[16:1],4h[16:1],5h[16:1],3h[16:1],4h[16:1],
{4}2/4,{8}4/2,5/3,{2}6/4-1[8:1],
{16}6,2,5,1,4,8,7-2b[8:1],3-6[8:1],,,,,,,,,3,
7,4,8,5,1,6-3b[8:1],2-7[8:1],,,,,,,,,{4}3/7,
{8}6/2,5/1,{2}8-3[8:1]/4-7[8:1],
{4}4-8[8:1],4w8[8:1],{2}Cf/4bp6[4:1],
{4}4h[4:3],{8}5,5,5,5,{4}5h[1:1],
4,{8}4,4,4,4,{4}4,
{2}7b-4[16:1]/8b-3[16:1],1b-6b[16:1]/2b-5b[16:1],
{32}8bh[4:3]/1bh[4:3],{4},,,{32}2/7,3/6,5/4,,,,,{4}4/8b<5[8:1],
8/3-7[8:1],3/4-8[8:1],4/1-6[8:1],
1/5<8[8:1],{8}5/1>4[8:1],2,1/7-4[8:1],6,{32}3x/7b,2x,1x,8x,,,,,{4}5/1b>4[8:1],
{8}1/5-8[8:1],6,5/3-1[8:1],2,{32}3b/7x,6x,5x,4x,,,,,{4}4/8,
{8}8/4,5/1,{32}2b-6[16:1]/6b-2[16:1],7/3,4/8,1/5,,,,,{4}Cf,
7x/1bx-5[8:1],1/6-1[8:1],6/4>1[8:1],4/8<5[8:1],
8/3-7[8:1],{8}3/4-8[8:1],5,4/1-5[8:1],2,{4}1/7b,
6/4b>1[8:1],{8}4/8<5[8:1],7,{32}8/1x,2x,3x,4x,,,,,8-4[16:1]/1-5[16:1],7/2,6/3,5/4,,,,,{4}8b/1b/Cf,
{8}7b-3[8:1]/2b-6[8:1],7b/2b,{4}7b/2b/Cf,{32}5,4,5,4,5,4,,,{4}5x-1[8:1],
5/2b-5[8:1],2/8<5[8:1],8/4>1[8:1],
4/7b-3[8:1],{8}7/8>3[8:1],1,8b/5<8[8:1],6,{4}5b/4,
3b/1-6[8:1],{8}1b/4-8[8:1],3,4b/5-1[8:1],6,{4}5b/2,
3/7,{8}8b<5[8:1]/4b>1b[8:1],4b/8b,{4}4b/8b-4-8b[16:3],{8}4b/8b,5b,
{4}6b<1[8:1],6/2b-5[8:1],2/8b-5[8:1],8/4b>1[8:1],
4/7b-1[8:1],{8}7/2b-4[8:1],3,2/6b<1[8:1],7,{4}6bv4[8:1]/2bv4[8:1],
Cf,{8}5x/3x,{32}5,4,5,4,{16}5b,,,6/4,,,{8}7/5,
{16}5/7,6/4,{8}3/5,2/4,1,{4}5/8-4[8:1],A8f,
6b,{16}6/4,3/5,{8}2/4,4q8[8:1],2-5[8:1],4,2,
{4}1-5[8:1],{8}1/2,3,4-8[8:1],6,4,5,
5/1,2,8/3,7,6/2,3,7/4,6,
5/4,3,2/1>4[8:1],8,{4}1b<6[8:1],1b,
5b/3b,{16}5/3,4/6,{8}5/7,5p1[8:1],7<4[8:1],5,7,
{4}8>3[8:1],{8}4,5,4/6-1[8:1],7,6/2-5[8:1],3,
8/2,7,6,5,4/3,2,8/1,7,
{4}4b/6b-4b[16:1],{8}4b/6b-8-2b[16:3],3,2b/6b,{16}2b,3b,{8}4b,5x,
{4}5w1[16:1],Cf,{8}2-6[8:1],1-5[8:1],2<3[16:3],1,
{4}2b,{8}7-3[8:1],8-4[8:1],7-5[8:1],8-2[8:1],7>4[16:3],8,
{4}7b,{8}1,5,6/2,3,7/4,8,
{4}1b-5[8:1],1b<6[8:1]*>4[8:1],1b,5,
{16}6b,4,5,4,6,4,7,4,6b,4,7,4,8b,4,{8}8,
{16}2b,8,1,8,3,8,4,8,3b,8,4,8,{24}3,7,3,7,{48},{16}2,
{8}6,1x,{12}5b,3b,8b,{16}1,7,2,6,3,5,{8}4,
{4}5,{8}6b-8v5b[4:1]/3b-1v4[4:1],3b/6b,{4}3b/6b,D5f,
{8}3x/6xh[4:1],4,5,7/6x,{16}6,8,{8}6,6x/8,{16}6,1,
{8}6,1/6xh[4:1],2,3,6/3xh[4:1],5,4,3x/2,
{16}3,1,{8}3,3x/1,{16}3,8,{8}3,3x/8,{16}3,7,{8}3,
{2}6b/3b,{16}1b,8b,4b,6b,1b-5b[16:1],5b,3b,{64}7b,,,B1,
1b/Cf,B5,
E
