&title=カゲロウ
&artist=晓Records
&first=0.15
&des=蜉蝣
&des_6=蜉蝣
&lv_6=13
&inote_6=(119){4},4h[1:1],{1},{4},,,3/5h[1:1],
,{8},4,
3,2,{4}1h[2:1],,4,
5,4/6h[1:1],,,,1h[1:1],
,,,5h[1:1],
,{8},4,
6,8,{4}1-5[2:1],{2},{4}1b,
5/6h[8:1],5/3h[8:1],4/6h[8:1],
{8}5/2h[4:1],4,1-6[8:1],7,5-1[8:1],4,{4}1,
8/2,4/2h[8:1],3/5h[8:1],7/4h[8:1],
{8}5/8h[4:1],6,1-6[8:1],4,5-1[8:1],3,{4}1,
7/1,{8}6/5,6,3/5,3,6/4,7,
3/5,1,6>3[8:1],3>8[8:1],{2}8pp6[4:1],
{4}4h[4:1],5-7[8:1],1,8-6[8:1],
{8}3,4,5pp4[4:1],4,3,2,{4}1h[4:1],
8<5[8:1]*>3[8:1],8pp5[8:3],1,4,
4>1[8:1]*<7[8:1],4pp1[8:3],6,8,
5<8[8:1]*>2[8:1],5qq8[8:3],3,1,
1-5[8:1],5qq8[8:3],{8}7,6,{4},{8}1h[4:1],
4qq5[8:27],{4}6pp5[4:13],{1},,,{4},,,6h[1:1]/4>7[4:3],
{1},{4},,,5h[4:7]/3-1[8:1],
,8-2[8:1],
,3V51[4:1],{2},{4}1,
{8}6/8-4[8:1],7,1,2,3/5-1[8:1],4,
6,7,8<5[8:1],4>1[8:1],8,4pp7[8:3],,8,
1,2,3-1[8:1],4,6-4[8:1],7,1-7[8:1],2,
4-2[8:1],5,6,7,1/8,2,3/7h[4:1],4,
5,6,5/7-1[8:1],7,2-4[8:1],2,6-8[8:1],5,
1>4[8:1],3,6<1[8:1],5,{4}2-4[8:1],5<8[8:1],
1h[4:1],{32}7b,2/6,3qq4[16:5]/5pp4[16:5],4,{4},,{8},{4}2b/6b,
{8}3/5-7[8:1],6,2V41[4:1],3,1-5[8:1],6,
8,7,1/6p2[8:1],4,{4}8>3[8:1]*<5[8:1],8,
2/6,{8}5/2-4[8:1],1,5-2[8:1],7,6V47[16:3],8,
3,2,1-4[8:1],8,{4}5>2[8:1]*<8[8:1],5,
3/7,{8}1/5-7[8:1],4,8V64[16:3],1,4,2,
8>3[8:1],8,4qq5[4:1],6pp5[4:1],5,{4},{8}3,
2,1,8/6V48[16:3],5,4,1,{4}3>5[16:3],
7,{8}8-4[8:1],4-7[8:1],1,3,{4}2w6[8:1],
2,{8}7/4>1[8:1],8/2,6V48[16:3],7,2>5[8:1],1<6[8:1],
2,1,4qq5[4:1],3,6pp5[4:1],5,{4},{8}3,
2,1/7<4[8:1],3/5,2V48[16:3],1,6-1[8:1],5-2[8:1],
6,5,8,4/6,1-5[8:1],5V74[16:3],{4}8,
{8}8,7,5/3>8[8:1],1,3/5-1[8:1],7,5/3-7[8:1],4-8[8:1],
3,4,3V52[16:3],2,6V48[16:3],8,,1,
2,3,8/4qq8[16:5],6,7,5,{4}6h[4:1],
{8},1,2/4,3/5,{16}1,5,3,4,{8}2h[8:1],{16}5,5,
{8}1>4[8:1]*<6[8:1],3/7,{4}1bs5[16:3],8,{8}6h[8:1],{16}3,3,
{8}5<1[8:1],6,{4}8/5V74[4:1],{8}4-8[8:1],1,3V52[16:3],2,
6,8,{4}7h[4:1],{8}2-4[8:1],1,5-2[8:1],7,
1w5[8:1],6,{4}1,3/7,{8}6h[8:1],{16}1,1,
{8}5>2[8:1]*<8[8:1],3/7,{4}5s1[16:3],4,{8}2h[8:1],{16}7,7,
{8}1>5[8:1],3,{4}4/1qq8[4:1],{8}8>4[8:1],5,6V84[16:3],5,
1,3,{4}2h[4:1],{8}6V48[16:3],8,1,3,
1w5[8:1],4/6,{4}1b,3/7,{8}5/1h[8:1],{16}5,3,
{8}8<5[8:1]*>3[8:1],2/6,{4}8-4[8:1],{8}4,2,8p4[8:1],{16}5,3,
{8}8,3,{4}1>4[8:1]/5<8[8:1],1/5,{8}3/7,{16}6,4,
{8}5h[8:1],1,{4}6/2-5[8:1],{8}5,8,6/4,1,
2v5[8:1]/8v5[8:1],5,{4}2v3[8:1]/8v7[8:1],,{8}8/4h[8:1],{16}8,2,
{8}5<8[8:1]*>2[8:1],3/7,{4}5-1[8:1],{8}1,3,5q1[8:1],{16}8,2,
{8}5,2,{4}4-8[8:1]/7-4[8:1],4/7,{8}2/6,{16}7,1,
{8}8h[8:1],4,{4}6/2-5[8:1],{8}5-1[8:1],7,{4}8-4[8:1],
{8}2,3-7[8:1],,4bqq5[2:1],{2}6bpp5[8:3],
{4},7/3h[4:1],{8}6,5h[4:1],3,2,
1h[4:1],5,6,7h[4:1],1,2>5[8:1],,6<1[8:1],
,3,{4}4h[4:1],{8}7,6h[4:1],4,3,
2h[4:1],6,7,8h[4:1],3,2,{4}1-5[8:1]/8-4[8:1],
1/8,2/7,{8}3,2-4[8:1],1,8,
7-1[8:1],6,5,4-6[8:1],3,1>4[8:1],,5<8[8:1],
,2,{4}3h[4:1],{8}5,2/6,5,2,
1/5,6,4,2/6,5,3,8/4,{16}6,6,
{32}4,3,2,1,8,7,6,5,{4}4b,
