&title=Warp Speed
&artist=Nhato
&des=FastDot
&first=0
&des_5=FastDot
&lv_5=14
&inote_5=(174)
{1},
{16}5,,,4,,,3,,5,,,4,,,3,,
{16}6,,,5,,,4,,6,,,5,,,4,,
{16}3,,,4,,,5,,3,,,4,,,5,,
{16}4,,,5,,,6,,4,6,,6,5,,5,,
{16}4/7h[8:7],,,5,,,6,,4,,,3,,,2,,
{16}1h[8:7]/6,,,7,,,8,,6,,,5,,,4,,
{16}5h[8:7]/2,,,1,,,8,,3,,,2,,,1,,
{16}4h[16:6]/7,,,8,,,1,,7,4,,4,5,,,,
{8}4bh[4:1]/6bh[4:1],,,,7/5,8,1/2,3/8,
{8}4bh[4:1]/6bh[4:1],,,,3/5,2,1/8,2/7,
{16}4h[8:1]/6h[8:1],,,3h[8:1]/7h[8:1],,,2h[8:1]/8h[8:1],,,,1/7,,3/6,,,,
{4}1-5[8:1]/8,1/7-4[8:1],2-6[8:1]/7,2/5,
{8}5bhx[4:1]/6bhx[4:1],,,,4/7,3,2/8,1/3,
{8}5bh[4:1]/6bh[4:1],,,,4/7,8,1/2,3/8,
{16}7,6,5,4,8,7,6,5,1,8,7,6,2,1,8,7,
{4}5-2[8:1],5-7[8:1]*-8[8:1],5-1[8:1]*-2[8:1],5,
{8}E7h[1:1],,2/E8,3,2/E8,3,2/E8,,
{8}E4h[4:3],,E3/6,7,E3/6,7,E3/6,7,
{16}3/6,,5,4,,,4h[8:1]/5h[8:1],,,,2/7,,1h[4:1]/8,,,,
{4}7-3[8:1],1-5[8:1]/7,1/8-4[8:1],2/8,
{8}4hx[8:1]/5xh[8:1],,3/6,7,2/8,3,4/6,,
{8}1hx[8:1]/2hx[8:1],,3/8,4,5/6,7,2/8,1,
{16}2/8,,7,1,,,3,5,4,,7,5,6,5,7,,
{4}8-4[8:1],2-5[8:1]/8,7-3[8:1]/2,2/7,
{8}2xq5[2:1]/5x,,,7,,8,8,,
{8}7xqq4[2:1]/3x,,,2,,1,1,,
{16}2xpp5[2:1]/6x,,,7,,,8,,,,7,,7,,,,
{4}8-6[8:1]*-5[8:1],8-3[8:1]*-4[8:1],8-5[8:1],8,
{8}E4h[1:1],A5,E6,B6,B7,E8,,,
{8}E8h[1:1],E5,E4,E3,E2,E1,,,
{8}A1h[1:1],A8,B7,E6,E5,A4,,,
{8}E6h[2:1],E4,E3,E2,A1,,2b,,
{16}1x,4,3,4,1x,5,4,5,2x,6,5,6,1x,5,4,5,
{16}3x,7,8,7,4x,8,1,8,4x,1,2,1,4x,7,8,7,
{16}1x,8,3,4,1x,8,3,4,1x,8,3,4,2x,1,3,4,
{4}2-6[8:1],2b-4[8:1]*-5[8:1],2b-8[8:1]*-7[8:1],2b,
{16}6x,3,4,3,7x,4,5,4,8x,5,6,5,1x,3,4,3,
{16}8x,2,1,2,7x,1,8,1,5x,8,7,8,4x,1,8,1,
{16}6x,5,8,1,6x,5,8,1,6x,5,8,1,6x,5,8,1,
{4}6-3[8:1],1-5[8:1]/6b,1b/7-4[8:1],7b/2,
{8}2/5,1,6/8,5,3/4,2h[4:1],,5,
{8}4/6,3,2/8,7,4/6,5h[4:1],,3,
{8}4/5,3,2/8,7,4/6,5,,3/5h[8:5],
{8},6,3,7,2,1,{16}6,7,8,,
{16}2x/1x,,3,5,4,,5/6,,7h[16:3],,,8h[16:3],,,1,,
{16}3x/4x,,6,4,5,,7/8,,1h[16:3],,,2h[16:3],,,3,,
{8}4,4,5,5,6,6,7,7,
{16}8,1,2,3,4,5,6,7,{24}8,7,6,5,4,3,2,1,8,7,6,5s1b[2:7]*z1[2:7],
{1},,,,
{8}2bh[4:3],,,,,,5,5,
{8},6,4,5,,3,4,5h[1:1],
{8},,,,,,1,1,
{8},1,8,7h[8:3],,,1,1h[1:1],
{8},,,,,,8,7,
{8},8,7,6,5,4,3,2<7[8:13],
{4},C,,C,
{4},C,,C,
{2}2b/E8/B8/E1/A8/D1,6b/E1/B1/E2/A1/D2,
{4}4b/E8/B8/E1,3b/B7/E8/E7,2b/B6/E7/E6,1b/B5/E6/E5,
{8}8x/B1,8x,7x/B2,7x,6x/B3,6x,5x/B4,5x,
{16}4,3,2,1,8,7,6,5,{24}4,5,6,7,8,1,2,3,4,5,6,7,
{1}Ch[1:1]/8,
{4}2x,3x,4xw8b[8:1],4b,
{16}1bx/7bx,,4,5,,5,4,,3b/6b,,1,8,,8,2,,
{16}5b/6b,,2,1,,1,2,,3b/4b,,7,1,,1,8,,
{16}2bx,7,2,7,3bx,6,3,6,3bx,4,5,6,2bx,3,4,5,
{16}1bx,2,3,4,8bx,7,6,5,1bx,8,7,6,2bx,1,8,7,
{16}4b/6b,,2,8,,8,2,,3b/5b,,7,1,,1,6,,
{16}3b/8b,,4,6,,6,5,,2b/8b,,6,5,,5,7,,
{16}4bx/8bx,7,6,5,1bx,8,7,6,2bx,1,8,7,3bx,2,1,8,
{16}6bx,5,4,3,1bx,2,3,4,8bx,7,6,5,8bx,1,2,3,
{16}4b/7b,,3,4,,4,3,,2b/5b,,8,7,,7,1,,
{16}4b/5b,,1,8,,8,1,,3b/4b,,6,8,,8,7,,
{16}1bx,6,1,6,2bx,5,3,4,2bx,5,1,6,2bx,5,1,7,
{16}2bx,5,1,7,3bx,6,1,8,3bx,6,1,8,3bx,5,4,6,
{8}B4h[1:1],,B3/7,6,B3/7,6,,,
{8}B7h[1:1],,B8/3,2,B8/3,2,,,
{8}E4h[4:3],8,7,7,6,6,5,5,
{16}6,5,7,4,8,3,1,2,8,3,7,4,6,5,6,5,
{8}7-4[8:1],,1b/7b,,2/5,3/6,4-1[8:1]/7,,
{16}4/8,,,,2/8,,2/8,,3,6,4,7,5,8,6,,
{8}8-4[8:1],,3/8,,3/5,4/6,5/7-3[8:1],,
{16}4/7,,,,2/4,,2/4,,6,4,5,3,4,2,3,,
{8}1-5[8:1],,1/7,,4/6,5/3,2/4-7[8:1],,
{16}1/4,,,,6/8,,6/8,,7,1,8,2,1,3,2,,
{16}4h[16:3],,,6h[16:3],,,8h[8:1],,2h[16:3],,,5h[16:3],,,6h[8:1],,
{16}8,,8,,7,6,5,4,3,2,1,8,7,,,,
{16}4/5,,4/5,,5b,5,6b,6,1b,1,4b,4,7h[4:1],,,,
{16}5b,5,2b,2,8b,8,5b,5,7b,7,6b,6,{24}8bx,1,2,{16}3,,
{16}7b,4,8b,3,6b,2,8b,4,7b,2,6b,4,,,3b,5,
{16}2b,4,3b,5,1b,6,3b,7,{24}1b,2,3,4,,1b,8,7,6,,,,
{2}2V47[2:1],C,
{2}6>1[2:1],C,
{2}3<1[2:1],C,
{4}8<5[8:1],2/8>3[8:1],6/8-5[8:1],2/8w4[8:1],
{1}8bx,
