&title=비밀 인형극 II
&artist=Plum/Uni
&first=0.965
&des=Puppet
&lv_5=13+
&inote_5=(128)
{8},,,,,,,
{16},,
{16}4^1[4:1],,,,,,,,8^5[4:1],,,,,,,,
{4}2^7[6:1],6q3[6:1],4q5[4:1],,
{4}8^5[4:1],,4qq1[4:1],,
{4}6>1[4:1],1p8[3:1],4h[4:1],,
{8}6b,6h[4:1],5,5h[4:1],7,7h[4:1],8,8h[4:1],
{8}5,5h[4:1],4,4h[4:1],8,8h[4:1],1,1,
{8}3,3h[4:1],4,4h[4:1],1,1,8,8,
{8}1b/8b,27,36,45,
(999){384},
(128)
{16}3b/4h[8:1],,2,,5h[8:1]/4,,3,6,4h[8:1],,7,,5h[8:1]/6,,8h[8:4],,
{16}E2/B2,,E3/B3,,,,5>1[6:1],,,,E1,E8,E7,,,,
{16}6/5h[8:1],,7,,4h[8:1]/5,,6,3,5h[8:1],,2,,3,4,1h[8:4],,
{16}E8/B7,,E7/B6,,,,B3/E4,,7,8,6,1,B6,B1,E5,E3,
{16}2x/1hx[8:1],,3,,8h[8:1]/1,,2,7,1h[8:1],,6,,8h[8:1]/7,,5h[8:4],,
{16}E4/B3,,E3/B2,,,,8>4[6:1],,,,E5,E6,E7,,,,
{16}7/8h[8:1],,6,,1h[8:1]/8,,7,2,8h[8:1],,3,,2,1,4h[8:4],,
{16}E6/B6,,E7/B7,,,,B2/E2,,E1,E8,E7,E6,1,8,7,6,
{1}5b<5[8:5]*>5[8:5],
{4}3h[2:1],4,5h[2:1],6,7h[2:1],8,1^4[8:1],,
{4}7h[2:1],8,1h[2:1],2,3h[2:1],4,5^8[8:1],,
{4}2-4[8:1],1,8-2[8:1],7,6-8[8:1],5,4-1[8:1]*-7[8:1],,
{4}6^8[8:1],5,4^6[8:1],3,2^4[8:1],1,8^5[8:1]*^3[8:1],,
{16}4h[8:1],,5,,36,,3,4,1,,6,,35,,6,,
{16}47,,8,,3,5,2,6,1>5[8:1]*q5[8:1],,,,,,,,
{16}6h[8:1],,5,,47,,8,3,1,2,7,4,6h[8:1],,3,4,
{16}2,,7,5,6,4,5,,2qq7[16:3]*q7[6:1],,,,,,,,
{16}5hx[8:1],,4,,63,,6,5,8,,7,,65,,4,,
{16}35,,2,,1,3,7pp8[8:1],2,8x-5[8:1],,,,,,,,
{16}3h[8:1],,4,,2,1,3,8,4,7,5,6,8,7,1,6,
{16}2,5,3,4,2,5,1,6,8-3[8:1]*-5[8:1],,,,,,,,
{16}1^4[8:1],,7x,6,5x/1x-6[8:1],,7,7,1^4[8:1],,5,,1-6[8:1],,7,7,
{16}1^4[8:1],,5,,6x/1x^6[8:1],,8x,,E5,E4,E3,E2,E1,,,,
{16}8^5[8:1],,2,,8x-3[8:1]/2x,3,4x,,8^5[8:1]/4,,4,,8-3[8:1],,2,2,
{16}8,,1x,4x,2x,8x,5x,7x,2x-7[8:1]/6x-3[8:1],,,,26,,,,
{16}1-3[8:1],,7,,1-5[8:1],,7x,6,5x/1x-3[8:1],,4,,1-5[8:1],,7,7,
{16}1^4[8:1],,4,,1x^6[8:1]/6x,,8x,,E5,E4,E3,E2,E1,,,,
{16}8-6[8:1],,2,,8x-4[8:1]/2x,3,4x,,8-6[8:1]/5,,5,,8,,2,,
{16}1x^4[8:1],,2,,8x^5[8:1],,7,,Chf[4:1],,,,,,6,5,
{16}7b-4[8:1],,2,,7/1x-5[8:1],,3,5,1x^6[8:1],,7,,4x^1[8:1]/1,,2,5,
{16}4x-7[8:1],,6,,2x/4,,3,,
{24}2b,1,2,1,2,1,2,,,
{16}3,4,
{16}2b-5[8:1],,5,3,6x,,7,8,6hx[8:1],,3,4,2x,1,3,8,
{16}4x^1[8:1],,2,5,4x,,7,,
{24}6b,5,6,5,6,5,6,,,
{16}3,4,
{16}2b-5[8:1],,7,,2/8x-4[8:1],,6,4,8x^3[8:1],,2,,5x^8[8:1]/8,,7,4,
{16}5x-2[8:1],,3,,7x/5,,6,,
{24}7b,8,7,8,7,8,7,,,
{16}6,5,
{16}7b-4[8:1],,4,6,3x,,2,1,3hx[8:1],,6,5,7x,8,6,1,
{16}5x^8[8:1],,7,4,5x,,2,,
{24}3b,4,3,4,3,4,3,,,
{16}8,5,
{16}7b^4[8:1],,2,,7/1xq5[8:1],,2,2,1^6[8:1]/5x,,7,,1/5xV71[8:1],,3,,
{32}2/5x^2[8:1],,,,3,,,,5x/7,,,,6,,,,
{32}2x,3,4,5,6,7,8,1,2x/B5/B4/E5,,,,
{16}3x,5,
{16}2b^5[8:1],,4,1,6x-1[8:1],,7,8,6x,,3,5,2x,8,3,5,
{16}1x-5[8:1],,3,7,1x,,8,,
{32}4x,3,2,1,8,7,6,5,4x/B1/B8/E1,,,,
{16}3x,5,
{16}2b^5[8:1],,7,,2/8xp4[8:1],,7,7,8^3[8:1]/4x,,2,,8/4xV28[8:1],,6,,
{32}7/4x^7[8:1],,,,6,,,,4x/2,,,,3,,,,
{32}8x,7,6,5,4,3,2,1,8x/B4/B5/E5,,,,
{16}6x,4,
{16}7b^4[8:1],,5,8,3x-8[8:1],,2,1,3x,,6,4,7x,1,6,4,
{16}8x-4[8:1],,6,2,8x,,1,,
{32}3x,4,5,6,7,8,1,2,3x/B8/B1/E1,,,,
{16}6x,5,
{4}8xp4[8:3],,4V28[8:3],,8<3[2:1],,1h[4:1],,
{16}3b/4h[8:1],,1,,5h[8:1]/4,,2,6,4h[8:1],,7,,5h[8:1]/6,,8,,
{16}7h[8:1]/5,,2,,8h[8:1]/5,,1^4[8:1],,37,,E6,E7,E8,,,,
{16}6/5h[8:1],,8,,4h[8:1]/5,,7,3,5h[8:1],,2,,3,4,1,5,
{16}2h[8:1]/4,,7,,1h[8:1]/4,,8,,7,8,5,2,B6,B1,E5,E3,
{16}2x/1hx[8:1],,4,,8h[8:1]/1,,3,7,1h[8:1],,6,,8h[8:1]/7,,5,,
{16}1h[8:1]/6,,4,,8h[8:1]/6,,5^8[8:1],,37,,E2,E3,E4,,,,
{16}7/8h[8:1],,5,,1h[8:1]/8,,6,2,8h[8:1],,3,,2,1,4,7,
{16}8h[8:1]/3,,5,,1h[8:1]/3,,4,,E5,E4,E3,E2,5,4,3,2,
{1}1b<1[8:5]*>1[8:5],
{8}3b/7b,1b/5b,
