&title=Lemonade
&artist=HIMEHINA
&first=0
&des=质子化御坂
&lv_5=13
&des_5=御坂126OH2号⁺
&inote_5=(732)
{1}
,,,
(183)
{4}
B7hf[4:4],,,
{16}
5x,4x,3x,2x,
{4}
1bhx[4:8],5,,5,,5,,5,7bh[4:8],3,,3,,3,,3,
{8}
2b-5[8:1],,,,2-5[8:1],,,1b,2-5[8:1],1b,,,2b-5b[8:1]/7b,,,,7b-4[8:1],,2b-5[8:1],,8b<5[8:1],,1b>4[8:1],,8bx,8bx,8bxw4b[4:1],,,,,,
{4}
1>4[4:2]/5x,5,5,5,6<1[4:2]/5,5,5,5,1-6[4:2]/4,4,4,4,5/8-3[4:2],5,5,5,
{4}
2/7v6-4[8:5],1,1,1,2V84[8:5]/7,6,6,6,7<4b[4:2]/3,3,2,2,
{8}
1-5[8:1],,8,8,6,6,4,4,
{8}
2-5[8:1],,6,7-4-6[4:1],,,2,3V52[4:1],,8,1-6[8:1],,,4,2/7,,
{8}
7-4[8:1],,3,2-5-3[4:1],,,7,6V47[4:1],,1,8,,
{16}
8,1,2,3,4/6,,,,
{8}
5/7qq5[4:1],,8,1,2,,4/6,5>7[8:3]/7,,7,6,5,4-1[8:1],,8,2-7[8:1],,8,6,4-7[8:1],,1,3<8[4:1],,8pp3[4:2],,,B8,B3,,,,
{8}
6h[4:1],,5,5,7,7,4,6,3h[4:1],,5,5,4,4,6,3,
{8}
2h[4:1],,1,8,7/2,1,8/6,5,4qq4[4:1],,4pp4[4:1],,,,,,
{4}
1-7[8:1],2-6[8:1],3-5[8:1],
{8}
8,8-4[8:1],,,1h[4:1],,5h[4:2],,7b>5p1[4:3],,A7f,,5,,6,,7,7,
{4}
1>4[8:1],1q5[8:1],8<5[8:1],8p4[8:1],8bx/E3f,
{8}
1,1,2,2,3,3,4b-1[8:1]/5b-8[8:1],,4b/5b,,
{8}
3>6[4:1],,6b<3b[4:1],,E5f,,8x-5-3[4:1],8,1,,2,2,1x>5[8:1]*p5[8:1],,1,,8x<4[8:1]*q4[8:1],,8,,
{8}
3xqq5[8:3],,8,7,6pp4[8:3],,4,3,
{4}
2x-8[8:1],2/6x-2[8:1],1x-5[8:1]/6,5xpp5b[16:5]*qq5b[16:5],,,2/7,
{8}
3,3,B6hf[4:3],,E5f,,E3f,,E1,,2xz6[8:3]/7xs3[8:3],,2/7,,,,,,
{32}
2x/7x,3x/6x,4x/5x,,,,,,2x/7x,3x/6x,4x/5x,,,,,,
{4}
5/6,3b>1b[16:1]*>8[32:3]`3!>7[96:12],3b,6b<8b[16:1]*<1[32:3]`6!<2[96:12],6b,3b>1b[16:1]*>8[32:3]`3!>7[96:12],3b,6b<3b[16:3]`6!q3[16:3],6b,
{8}
,2x,1xs5[4:1],,6,6,6-2[8:1],,2,1,8>4-6[8:3],,3x-5-7-1b[8:3],,E4f,,,,5h[4:2],,,,4,4w8b[8:1],,B4f/A4/E4/E5,,,,,2/7,2/7,3/6,3/6,
{8}
4x-2<1-5[8:3]/5,4x,5,6,7-3[8:1],,7,,1/4x-8<7-5[16:5],4x,1,,2-6[8:1],,2,,
{8}
5x>4-2[8:1]/8,5x,7,,6x>5-1[4:1]/1,6x,,2,3x>1-5[16:5],3x,6,7,8w4[8:1],,8,,
{8}
5x-7>8-4[8:3]/4x,5x,4,3,2-6[8:1],,2,,8/5x-1>2-4[16:5],5x,8,,7-3[8:1],,7,,
{8}
4x<5-7[8:1]/1,4x,2,,3x-1<8-4<6[4:2]/8,3x,,7,6x-2[8:1],7x,8x,7bhx[8:3],,,3,3,2>4-8[4:1],,8,7,6-2-8[4:1],,5,4,3-5<6[4:1],,6-2[4:1],,2<1-7[4:1],,7,,6V83[4:1],,
{8}
3>5b[8:3],,4bh[4:1],,,3,2/4x,,1/8,,5-2[8:1]/6-8[8:1],,5b/6b,,
{8}
1x<4[8:3]/4,,,3,2,2,1,8-3[8:1],,,7-4[8:1],,2-5[8:1],,1-6[8:1],,6xw2[8:1],,,,4pp4[4:1]*qq4[4:1],,4>4[4:2]*<4[4:2],,
{4}
,,,1v4[8:1]/7v4[8:1],
{8}
1b/7b,A4hf[8:6],,,,,,
{32}
B4/Cf/B1/A1/B7/A7,,,,
{8}
,,,,,2/8,4/6,,3-1[8:1]`5-7[8:1]*-7[8:1],3/5,,,8-4b[8:1],8,,,
{8}
1b/6xh[4:1],,1,8h[4:1],1,,1/2h[4:1],,1,4h[4:1],1,,16,,17,,
{8}
8/1h[4:1],,8,3h[4:1],8,,8/5h[4:1],,8,7h[4:1],8,,81,,82,,
{4}
3-5[8:1],8-5[8:1],1-5>3[4:1],8,
{16}
7x,6x,5x,4x,1x,2x,3x,4x,
{8}
5/6,7,1/8,
{16}
2,4,3-8b[8:1],,2/6,,
{32}
7bx,6,5,4h[32:117]/A8f,,,,,
{4}
,,,,,
{16}
,,1,2,
{1}
3h[4:8],,E
