&title=ほっといて。
&artist=Gero×ナナホシ管弦楽団
&first=0
&des=Kurene_Saka
&lv_5=12+
&inote_1=
&inote_5=(119)
{1},
{8}4xh[4:4],E6,,B6,,B7,,E8,
{8}5xh[8:9],E4,,B3,,B2,,E2,
{4}4xh[8:1],3xh[8:1]/6xh[8:1],2xh[8:1]/7xh[8:1],1xh[8:1]/8xh[8:1],
{32}B2/B7,,,B3/B6,,,E3/E7,,{4}B1/B8/B4/B5/Cf,
{8}4h[4:4]/5,6,,6,5,6,,6,
{8}5h[4:4],3,,3,4,3,,3,
{8}2h[4:4],6,,6,7,6,,6,
{16}7x,B2/B7,,,6x/3x,B6/B3,,,4x/5x,B4/B5/Ch[16:7],,,{4},
{8}1pp4[4:3],,,,{32},,,E6,,,,B6,,,,,B7,,,,
{4}8qq4[4:3],Ch[4:2],,,
{32}1p6[4:3],,,,2x,,,3x,,,,4xh[32:9],,,,,{8},,4,3,3s7[8:3],{16}8,8h[16:7],{8},,,,8V24[4:2],1,
{8}2-6[4:1],,,,,,1V72[4:2],8,
{8}7z3[8:3],,,,{16},,1h[16:3],,,4h[16:14],,,
{8}5h[4:1],,{32},,,,,,,7x,6x,,,5xpp4[32:25],,,3xqq4[16:11],,{4},
{1},
{4}8h[4:1]/4,4V68[4:1],8V24[4:1]*v2[8:1],,
{8}7h[8:1],,8h[8:1]/4,,4/1h[4:1],4,,2x/3x,
{8}2x/3x,2x/3x,E8/B8/B1/E2/B7/C/B3/E4/E5/E6,,6x/7x,6x/7x,{4096}B7/B4/E5/E6/E7/C,E1,E2,E3,B8,B3,,,{512},,,,,,,{64},,,,,,,{16},,
{8}5h[4:1]/4,3,{16}2,,1z5[4:1]/5z1[4:1],15,{4},,
{8}8h[16:1],8h[16:1],8v3[8:1]*>8[8:3],,,,,,
{16}3z7[4:1],4,5,6,{4}7z3[4:1]/3,,,
{4}7xh[8:1]/2xh[8:1],2xh[8:1]/4xh[8:1],4xh[8:1]/6xh[8:1],{8}6x-4[8:1]/8x-4[8:1],6x/8x,
{4}6b-2[8:1]/8b-2[8:1],6b/8bpp3[4:1]*qq5[4:1],8b,,
{8}2x/7x,B2/B7,2x/7x,E3/E7,3x/6x,B3/B6,3b/6b,,
{16}E2,B2,B3,E4,E8,B7,B6,E6,{8}E2/5xh[4:1],B2,B3,{16},E7/Ch[16:5],
{16}B7,B8,E1,,8,,,E3/Ch[16:5],B2,B1,E1,,1h[16:3],,,,
{16},B3/B7,E8/E4,,B6/B2,E2/E6,,E3,,B1/B4,B8/B5,,E7/B6/B7/Cf,,,,
{8}4h[8:3]/7,7,B8,B8,B2/B7,B3/B6,3b/6b,,
{16}2h[4:3]/8x,,7h[16:1],,8x,,6h[16:1],,8-4[8:1],,5,,8,,,,
{4}C/B8/B7/B6/B5/E5,,C/B1/B2/B3/B4/E5,{8},C/B2/B7,
{8}2x/7x,,,,3b/6b,B3/B6/C,3b/6b,,
{8}27,18,27,18,27,B3/B6,4h[8:1]/5h[8:3],,
{8}E2,3h[4:1],B1,4h[4:1],B8,5h[4:1],E8,6h[4:2],
{8}E1,B1,B2,3h[4:2],E1,B8,B7,6,
{16}3x/6x,B3/B6,,,7x/2x,B7/B2,,,1x/8x,B1/B8/Ch[16:7],,,{4},
{8}1s5[4:1]*v4[4:1],,,,,{16}8x,8xh[8:1],,1x,,2xp1[16:3],
{16}2xh[4:2],,,,,,,,,,1,8,7,6h[8:3],,5h[8:3],
{16},,,,,3pp6[16:7],,4h[16:14],,,,,,,,,
{16},,,,,E1,C,E5,E4/E6,,E3/E7,,E2/E8,,B3/B6/Cf,,
{16},,8,8h[8:1],,1,7,2,6,3,5,4h[16:3],C,,1,8,
{16}7,6h[16:11],,B1,B8,,7,8,1,2,3,4,5>2[8:1],,,,
{8}7/5<8[8:1],6,3/5-2[8:1],4,7/5-8[8:1],6,3-1[8:1]/5,4-6[8:1],
{8}3b-7[8:1],4b-8[8:1],3b,{16}4b,Cf,{8},,,,
{8}2x/7x,B1/B8,2x/7x,E3/E7,3x/6x,B4/B5,3b/6b,,
{8}7/3h[8:3],7,2-6[8:1],2,4,4,E5`E1/B1/B2/B3/B4/E4/B5/B6/E6/B7/B8/Cf,,
{16}6/Ch[4:1],7,8,,8,,,4,3/Ch[4:1],2,1,,1h[16:3],,,,
{16},B2/B3/8h[16:1],,,B7/B6/1h[16:1],,,E3/E7,,B2/B7,B1/B8,E1,E4/E6/B3/B4/B5/B6/Cf,,,,
{8}5h[8:3]/7,7,B8,B8,B2/B7/C,E3/E7,3b/6b,,
{16}2h[4:3]/8x,,B7,B6,8x,,B7,B6,8-4[8:1],,5,,8,,,,
{4}Ch[8:6]/B8/B7/B6/B5/E5,,B1/B2/B3/B4/E5,{8},B2/B3/B7/B6,
{8}2x/7x,,3x>1[8:1]/6x<8[8:1],,3b-7[8:1]/6b-2[8:1],,3b>5[4:2]/6b<4[4:2],,
{4},,,Cf,
{4},,,{16},4,5h[1:1],,
{16}B5,,B7,,E2,B2,B3,B4,,Ch[16:5],,,,,,,
{8},{32}1x,2x,3x,4x,5x-1[8:1],6x,7x,8x,1x,2x,3x,4x,{16}5bw1[8:1]/Cf,,,,Cf,,,,
{8}3-6[8:1]/7,7,B8,B8,Ch[8:1],B3/B6,3b/6b,,
{16}2h[4:3]/5x,,3x,4x,B3/E4/B4,,3x,4x,B3/E4/B4,,3x,4x,B3/E4/B4,,,,
{8}Ch[8:7]/E8`B7`B6`E6,,,8x,E8`B7`B6`E6,,{8},B2/B3/B7/B6,
{8}2x/7x,,,,3bv1[8:1]/6bv8[8:1],E4/B4/B5/E6,3b/6b`Cf,,
{8}B2/6,B3/7,E2/6,E4/7,B6/2,B7/3,Ch[8:9]/2,,
{8}1,E2,B2,B3,4,E4,B3,B2,
{16}4/5,E4/E6,,4/5,B3/B6/C,,,,1/8,E2/E8,,1/8,B2/B7/Chf[16:19],,,E1,
{16}1xh[16:1],,,E3,3xh[16:1],,,E5,5xh[16:1],,,E7,7xh[16:1],,,B2/B3/B7/B6,
