&title=init()
&artist=kamome sano
&first=0.01
&des=KhronoLabyrinth+akaimori
&lv_5=14+
&inote_5=(180)
{1},
{8}4b/5b<4[4:14],,B5,,,,B4,,,,B3,,,,B2,,,,B1,,,,B8,,,,B7,,,,B6,,
{8}4>5[4:6],,B4,,,,B5,,,,B6,,,,B7,,,,B8,,,,8/1,E7/B6/B7/E3/B3/B2/Cf,,,5/4,E7/B7/B6/E3/B2/B3/Cf,,,,,
{4}8qq5[4:2],4,3,2,1pp4[4:2],5,6,{16}7,,8,1,{4}2qq7[4:2],6,5,4,3pp6[4:2],7,8,1,
{8}3/4,4,4/5,5,5/6,6,6/7,7,7/8,8,8/1,1,1/2,2,2/3,3,
{16}5,4,6,3,7,2,8,1,7,2,6,3,5,4,5,4,{32}5x,6x,7x,8x,1x,2x,3x,4x,E5,E6,E7,E8,E1,E2,E3,E4,{4}Cf,,
{24}4x/8b<4[4:1],3x,2x,1x,,,{16}4>8[4:1],,,,8>6[8:3],,,,4hx[4:3],,,,,,E7,E8,E1,E2,E3,E4,5x,,4x,,3,,2,,
{24}5x/1>5[4:1],6x,7x,8x,,,{16}5<1[4:1],,,,1<3[8:3],,,,5hx[4:2],,,,,,,,2,,1h[4:1],,,,2,,3,,3pp7[4:2]*<2[4:2],,{8},,,,,,6,6qq2[4:2]*>7[4:2],,,,,,,5p1[8:1],1p5[8:1],
{8}5>5[3:1],,,,1x,,5hx[8:1]/4hx[8:1],,{16},,7/2,,7,5,,2,4,{32}5,6,7,8,1,2,3,4,5h[8:1],,,,,,
{24}5x/1x>5[4:1],6x,7x,8x,,,{16}5<1[4:1],,,,1<3[8:3],,,,5hx[4:3],,,,,,E3,E2,E1,E8,E7,E6,4x,,5x,,6,,7,,
{24}4x/8<4[4:1],3x,2x,1x,,,{16}4>8[4:1],,,,8>6[8:3],,,,4hx[4:2],,,,,,,,7,,8h[4:1],,,,7,,6,,5h[4:1],,
{8},,6/5,5,5/4,4,4/3,3,3/2,2,2/1,1,1/8,8,8/7,7,7/5,6/4,3/5,4/2,{16}2,7,4,5,3,6,1,8,
{8}C,,,4,4,5,5,,
{32}4/8,,,,8,,,,8,,,,8,,,,4/8x,E8,B7,B6,E6,,,,4-1[8:1],,,,4,,,,
{32}4/7,,,,7,,,,7,,,,7,,,,3/7x,E8,B8,B1,E2,,,,3-6[8:1],,,,3,,,,
{32}3/8,,,,8,,,,8,,,,8,,,,4/8x,E1,B1,B2,E3,,,,4-7[8:1],,,,4,,,,
{32}4/1,,,,1,,,,1,,,,1,,,,5/1x,E2,B2,B3,E4,,,,4x/5x,E6,B6,B7,E8,,,,
{32}4/8,,,,8,,,,8,,,,8,,,,4/8x,E8,B7,B6,E6,,,,4,,,,4,,,,
3/7,E4,B4,B5,E6,,,,7,E8,B8,B1,E2,,,,E7/B7/B6/B3/B2/E3,,,,,,,,3,,,,3,,,,
3/8,,,,8,,,,8,,,,8,,,,4/8x,E1,B1,B2,E3,,,,4-7[8:1],,,,4,,,,
4/1,,,,1,,,,1,,,,1,,,,5/1x,E2,B2,B3,E4,,,,4x/5x,E6,B6,B7,E8,,,,
{16}1x-5[8:1],,5<7[12:1],,{32}1,B1,C,B5,5x,,,,
{16}2x-6[8:1],,6<8[12:1],,{32}2,B2,C,B6,6x,,,,
{16}1x-5[8:1],,5<7[12:1],,{32}1,B1,C,B5,5x,,,,
{16}2x-6[8:1],,6>4[12:1],,{32}2,B2,C,B6,6x,,,,
{16}8x-4[8:1],,4>2[12:1],,{32}8,B8,C,B4,4x,,,,
{16}7x-3[8:1],,3>1[12:1],,{32}7,B7,C,B3,3x,,,,
{16}8x-4[8:1],,4>2[12:1],,{32}8,B8,C,B4,4x,,,,
{16}7x-3[8:1],,3<5[12:1],,{32}7,B7,C,B3,3x,,,,
{8}1x-7[8:1],7,1v6[8:1],5,1v4[8:1],5,1,,
{8}8x-2[8:1],2,8v3[8:1],4,8v5[8:1],4,8,,
{32}1x-3[8:1],B1,,,8x-6[8:1],B8,,,{8}1x,8x,{16}1,8,3,6,4,5,2,7,
{8}1bpp4[8:5]*qq6[8:5],,Ch[8:1],,{32}E8/B8,B7,,,E3/B2,B3,,,,,,,,,,,
{32}6x/4xh[16:1],,,,4x/6xh[16:1],,,,1,B1,,,,,6/4h[8:1],,,,,,4/6h[16:1],,,,2b,1,8,7,6,,,,
{32}3x/5xh[16:1],,,,5x/3xh[16:1],,,,8,B8,,,,,3/5h[8:1],,,,,,5/3h[16:1],,,,7b,8,1,2,3,,,,
{32}6x/4xh[16:1],,,,4x/6xh[16:1],,,,1,B1,,,,,6/4h[8:1],,,,,,4/6h[16:1],,,,2b,1,8,7,6,,,,
{32}3x/5xh[16:1],,,,5x/3xh[16:1],,,,8,B8,,,,,3/5h[8:1],,{16}E4,E5,E6,E7,E8,E1,E2,E3,
{32}6x/4xh[16:1],,,,4x/6xh[16:1],,,,1,B1,,,,,6/4h[8:1],,,,,,4/6h[16:1],,,,2b,1,8,7,6,,,,
{32}3x/5xh[16:1],,,,5x/3xh[16:1],,,,8,B8,,,,,3/5h[8:1],,,,,,5/3h[16:1],,,,7b,8,1,2,3,,,,
{32}6x/4xh[16:1],,,,4x/6xh[16:1],,,,1,B1,,,,,6/4h[8:1],,,,,,4/6h[16:1],,,,2b,1,8,7,6,,,,
{16}5xh[8:1]/B3,,,4h[8:1]/B6,,,6h[8:1]/E2,,,3h[8:1]/E8,,,2h[16:1]/5h[16:1],,4h[16:1]/7h[16:1],,
{32}2/8h[8:1],B2,,,,B8,,,4,B4,,,,,8/2h[16:3],B8,,,,,,B2,,,5,,4/6,E5/E6,,,,,
{32}7/1h[8:1],B7,,,,B1,,,5,B5,,,,,1/7h[16:3],B1,,,,,,B7,,,4,,5/3,,,,,,
{32}2/8h[8:1],B2,,,,B8,,,4,B4,,,,,8/2h[16:3],B8,,,,,,B2,,,5,,4/6,E5/E6,,,,,
{32}7/1h[8:1],B7,,,,B1,,,5,B5,,,,,1x/8x,2xpp6[32:5]/7xz3[32:5],3/6,,,,,,,,,,,,,,,,
{16}8<3[2:1]/1,,2,,8b/3,,,2,,,1,,8,{32}7,B7/B3,,,,,
{16}4>7[2:1]/5,,6,,4b/7,,,6,,,5,,4,{32}3,B3/B7,,,,,
{8}8/4,8/4,1/5,1/5,2/6,2/6,3/7,{32}3/7,,6,5,
{32}4/2b,E3,B3,,4x,,5x/7b,E7,B6,,5x,,4x/1b,E2,B2,,4x,,{16}5x/8b,{16}6,7,8,1b,2b,3b,
{1}4b>5[4:14]/Cf,,,,
(90)
{4}1>6[2:1],B1/B2,,B5/B6,8qq5[8:5],B1/B2,,B3/B4,
(180)
{4}1>4[2:1],E5,B6,E8,1<5[2:1],E5,B3,E2,
{4}8>5[2:1],5,6,7,8q4[4:1],4q8[4:1],8>3[4:1],3<5[6:1],
{8}8pp4[2:1],8,7,6,5,6,7/C,,1qq5[2:1],1,2,3,4,3,2/C,,
{16}1,8,2,7,3,6,4,5,4,5,3,6,2,7,1,8,1,2,3,4,5,6,7,8,1x,8x,1x,8x,1x,8x,Chf[8:25],,
{1},,
{16}3x,4x,5x,,2x,3x,4x,,1x,2x,3x,,8x,1x,2x,,
{16}B8,B7,B6,B5,B4,B3,B2,B1,E8,E7,E6,E5,E4,E3,E2,E1,
{16}8xv5[8:1],7x,6x,5x,4x/8,,,,8/4,7/3,6/2,5/1,
4xv1[8:1],3x,2x,1x,8x/4,,,,4bv2[8:1]/8v6[8:1],3b/7,2b/6,1b/5,8b/4,,,,,,,,
{16}1xv4[8:1],2x,3x,4x,5x/1,,,,1/5,2/6,3/7,4/8,
5xv8[8:1],6x,7x,8x,1x/5,,,,5v7[8:1]/1v3[8:1],6/2,7/3,8/4,1/5,,,,B3/B4,,1b/2b,8,
{16}7,6,5,4,8,7,6,5,7,6,5,4,8b/3,1,2,3,
{16}1,2,3,4,2,3,4,5,8h[8:1],,1>8[8:5],,8/2,,1b/3,,
{8}E3,E4,E5,E6,E7,1>4[8:1]*-4[8:1],2,{32}1b/8,E2,E3,E4,
{8},8<5[8:1]*-5[8:1],7,{32}8b/1,E8,E7,E6,{8},B2/B3,B8/B7,B5/B6,
{16}1xv4[8:1]*>6[4:1],2x>7[4:1],3x<8[4:1],4x<1[4:1],5x/1,,,,1,2,3,4,
5xv8[8:1]*<2[4:1],6x<3[4:1],7x>4[4:1],8x>5[4:1],1x/5,,,,5b/E1,6b/E2,7b/E3,8b/E4,1b/E5,,B7/B6,,B1/B2,,B3/B4,,
{16}8xv5[8:1]*<3[4:1],7x<2[4:1],6x>1[4:1],5x>8[4:1],4x/8,,,,8,7,6,5,
4xv1[8:1]*>7[4:1],3x>6[4:1],2x<5[4:1],1x<4[4:1],8x/4,,,,4/E1,3/E8,2/E7,1/E6,8/E5,,,,,,
{16}4,5,6b/2h[8:1],,4,,3/7h[8:1],,5,,8/1h[8:1],,Ch[8:1],,8,1,2b/6h[8:1],,8,,7/3h[8:1],,1,,4/5h[8:1],,Ch[8:1],,7,,8h[8:1]/1,,1,8,
{16}2b,1,3,1,4b,8,5,8,6b,7,5,7,4b,8,3,8,
{32}2b,3,4,5,6,7,8,1,2b,3,4,5,6,7,8,1,
{32}5b,4,3,2,1,8,7,6,5b-1[16:1]*w1[4:8],4,3,2,1,8,7,6,
{64}5b,B5,Cf,B1,{16},,,{4},,,,,,,
{8},B7,B6,B5,B4,B3,B7,B6,B5,B4,B3,B5,B4,B3,B2,Ch[8:23],
