&title=混沌ブギ
&artist=jon-YAKITORY
&first=0
&des_5=chrt VS 鸠月
&lv_5=13+
&des=chrt VS 鸠月
&inote_5=(190){8},,1,,1-4[8:1],,7,6,5,63,5qq5pp5[8:4]/4,,54,,,,2,1,1xq5[8:1]/5q1[8:1],,1<6[8:1]/5>2[8:1],,,,15,,7-2[8:1]/3-6[8:1],,73,,,51,7b/3b,,B6/E7/B7,,B2/B3/E3,,5,5-2[8:1]/4-7[8:1],4,45,,,1/8<5[8:1],,2,3,4p8[8:1],5,5q2[8:1]/4,,3>8[8:1],,3/6<1[8:1],,62,,2b,,2,3,4,5,6,7,7b-4[8:1],{16}E8,B8,B1f,E2,{8},3,4,3,4,54,,56,,6,5,4,4-7[8:1]/5-2[8:1],6h[16:1]/3h[16:1],,,,8-5-7[8:2]/1,,2h[8:1],,3h[8:1],,4h[8:1]/8<5[8:1],,84,2,1>4[8:1],,6/1p5[8:1],,1x,,4qq1[8:2],6,7,8-5[8:1],8,,2qq4[8:2],,2/6h[8:1],,7h[8:1],,1bxh[8:1],,2bh[8:1],,3bh[8:1],,5-3-6-2-7-1[8:6],,,,,,,,,,Cf/8b,,1h[8:1]/2h[8:1],,1h[8:1]/2h[8:1],,1h[8:1]/2h[8:1],,3h[8:1]/4h[8:1],,5h[8:1]/6-1[8:1],,2h[8:1],,2>4[8:1],1h[8:1],,8x,8p5[8:2],4h[8:1],,4h[8:1],,3-8[8:1],3,,4-7[8:1],,2-5[8:1],,1-6[8:1],,4h[8:1],,4h[8:1]/5xh[8:1],,4h[8:1]/5h[8:1],,6h[8:1]/7h[8:1],,7h[8:1]/8>3[8:1],,6h[8:1],,5-8[8:1]/4h[8:1],,3h[8:1],,2q4[8:2]/7h[8:1],,6h[8:1],,6h[8:1],,3h[8:1],,{16}5h[8:1],,4,4,5,,4h[8:1],,5,,5h[16:1],,4b,,,,{8}2-4-6-8[8:4],,5-1[8:2],,,,A8,,5x/3x,71,,6v8[8:1]/2v4[8:1],,,,,1-6[8:1]*-7[8:1],,1-4[8:1]*-3[8:1],,1-5[8:1],,,,4-8[8:1],6-2[8:1],4,6,,,,,2-6-1[16:4],,1v4[8:1],,8,,7,,6-2[8:1]/2-6[8:1],6-3[8:1]/2-5[8:1],,,,,7xv2[8:1],,2p4[8:1],,,,3h[8:1],,2qq7[8:4],2q5[8:4],,,,,,,,,6-1[8:1]/2,2,2,2,2-5[8:1],8x,8,8,8-4-1-6[8:3],8,3,2,2h[8:2],,,2,8/1pp1[8:1],7,6,5,5<1[8:2],1,2,3,4h[8:1],B7/B8/E8,4h[8:1],B1/B2/E2/,Cf/4b,,3-8[8:1],4,3,5,6-1[8:1],1,2,3,4-8[8:1],8,7<5[8:1]/4,6,7,1,2-6[8:1]*-5[8:1],,2b,,B7/E7,,B3/E3,,B8/E1,,B4/E5,,C,,84,73,26,15,B5/C/B1,,7,6,7-5-3[8:2]*-1-3[8:2],,7,,,,2-4-1-5-8-6[8:4],2,2,,,,A6,,7,8,8qq8[8:1],,1pp1[8:1],,1,7hx[8:1],,6h[8:1],2,3,4h[8:1],,B3/B4,,8-6[8:1]/7,8,8/1-5[8:1],,1/2-4[8:1],,2,6,6,6,3,3,3,7,7,{16}8,1,2,3,4,5,6,7,8,1,2,3,4,5,6,7,8,,3bs7b[8:4],,,,,8bh[16:1],,,8bx,,8bx,,8bx,,,,1-5[8:1],,,,15,,,,7<4[8:1],,4-8[8:1],,{8}7,,2-5[8:1],,7-1[8:1]/2,,7,3,2,,E7/B7/E8/B2/E3/E2,,7-3[8:1]/3-7[8:1],,73,,5hx[16:1]/1hx[16:1],,5<8[8:1]/1>4[8:1],,51,,,73,51,,6/2-4-1[8:1],,62,,5,4x-7[8:1]/5-2[8:1],4,54,,,8/1>4[8:1],,8/1,7,6,5,5q1[8:1]/4,,4p7[8:1],,6<1[8:1],,3b>8[8:1],,,,5,6-2[8:1]/3-7[8:1],72,63,,,8-5[8:1]/1,,8/1-4[8:1],,1-6[8:1],7,1,,3-1[8:1],,7<5[8:1]/3,,7,8,1,2,3-8[8:1],54,6<8[8:1]/3,,,,B1/B2/E2,1x>5[8:1],,1-7[8:1],,1-5-1[8:2],,,,,6h[8:1],,6h[8:1]/1-3[8:1],1,1-7[8:1],5h[8:1],,5h[8:1],2xqq4[8:2],,5,,5,6,7,8-4-6[8:1]/3-1[8:1],8h[16:1]/3h[16:1],,,,7-4[8:1],7b,,3b>1pp6[8:4],,,,,,,E8/D8/A8f,,4hx[8:1]/8x-6[8:1],,4h[8:1]/8-2[8:1],,4h[8:1]/8-6[8:1],,4h[8:1]/8-2[8:1],,4h[8:1]/8-6[8:1],,4h[8:1]/8-2[8:1],,4h[8:1]/8-6[8:1],,4h[8:1]/8-2[8:1],,4h[8:1]/8-6[8:1],,4h[8:1]/8-2[8:1],,4h[8:1]/8-6[8:1],,4h[8:1]/8-2[8:1],,4h[8:1]/8-6[8:1],,4h[8:1]/8-2[8:1],,84,,,5/4,8-5[8:1]/1-4[8:1],,8-6[8:1]/1-3[8:1],,8-5[8:1]/1-4[8:1],,8-6[8:1]/1-3[8:1],,8-5[8:1]/1-4[8:1],,8-6[8:1]/1-3[8:1],,8-5[8:1]/1-4[8:1],,8-6[8:1]/1-3[8:1],,8-5[8:1]/1-4[8:1],,8-6[8:1]/1-3[8:1],,8-5[8:1]/1-4[8:1],,8-6[8:1]/1-3[8:1],,8-5[8:1]/1-4[8:1],,8-6[8:1]/1-3[8:1],,81,,,,1,,2,,5-8<6-1[8:2],5,5,,3,,4,,6-2[8:1]/7-3[8:1],67,67,,1x-5-7-2[8:3]/4x,,B6/B7/E7,,8,,8-4-6-1[8:4],,E4/B3/E3,,3,,3h[8:1],,3,,3-7[8:1],,,,6,8,5,1-4[8:1],5h[8:2]/1,,,,6b,7b,8b,1b,1bxh[8:1],,2bh[8:1],,3bh[8:1],,C,,8qq5b[8:4]/1pp4b[8:4],,,,,,,,1-5[8:1]/6-8[8:1],,1-3[8:1]/6,,7<4[8:1],7,4q8[8:1],,2p4[8:1],,6-8[8:1],,3>1[8:1],3,1xpp5[8:2],8,7h[8:2],,,,B7/B8/E8,,6h[8:1]/4qq8[8:2],,6h[8:1]/4,,6h[8:1],,,B6/E6/B5,B1/B2/E2,,7-3[8:1]/8-2[8:1],,78,,5xz1[8:1]/4xz8[8:1],5x/4x,5x/4x,,7-5-3[8:2]/2q2[8:2],,2b<4[8:3]/7,,,,,,1hbx[8:1],,2hb[8:1],,3hb[8:1],,5b/4b
,{16},,1b/8b,2b/7b,6b/3b,,
{8}4,5,4-1[8:1],5,4,,5-7[8:1]*-2[8:1],,5-1[8:1],,8-5[8:1],8,2<7[8:1],2,6-2[8:1]*-3[8:1],,6,,1x-3[8:1]/4x-8[8:1],3<6[8:1]/8,14,,7,,6z2[8:1]/7z3[8:1],,67,,1x/4x,,6h[16:1]/7h[16:1],,6-2[8:1]/7s3[8:1],,67,,1x/4x,,
{8}1-5[8:1]/2-6[8:1],,2/1,,4-2[8:1],7-5[8:1],4,7,
{8}8x-3[8:1]*-5[8:1],,8,,4x-6[8:1],2-8[8:1],4,2,
{8}7x<4[8:2],,4>1[8:2],,1<6[8:2],,6>6>1[8:6],,,,,,,,,,
{8}1>3[8:1]/6xh[8:1],,1-5[8:1]/6xh[8:1],,1>3[8:1]/6xh[8:1],,1-5[8:1]/6xh[8:1],,1>3[8:1]/6xh[8:1],,1-5[8:1]/6xh[8:1],,1>3[8:1]/6xh[8:1],,1-5[8:1]/6xh[8:1],,1,,
{8}6>3[8:2],,3>1[8:2],,1<6[8:2],,6>2[8:2],,1,1,,1,1,,
{8}8<6[8:1]/3xh[8:1],,8-4[8:1]/3xh[8:1],,8<6[8:1]/3xh[8:1],,8-4[8:1]/3xh[8:1],,8<6[8:1]/3xh[8:1],,8-4[8:1]/3xh[8:1],,8<6[8:1]/3xh[8:1],
,8,,
3/4,2,6/5,7,2h[8:2]/4h[8:2],,,2,,3,,4,,5,6b-2b[8:1]/5h[8:12],,
{32}B6f,Cf,B2f,A2hf[8:9],
{8},,,,,,,,,,,,,
{8}6b-2b[8:1]/5h[8:12],,
{32}B6f,Cf,B2f,A2hf[8:9],,,,,,,,,,,,,,,,,,,,,,,,,,,,,,,,,,,,,,,,,,,,,,,,,,,,,
{8},,6h[8:1]/5h[8:1],,4h[8:1]/3h[8:1],,2-5[8:1],1,2,1,
{8}3h[8:1]/4h[8:1],,5h[8:1]/6h[8:1],,7-4[8:1],8,7,8,
{32}2bxh/8bxh,3bxh/7bxh,4bxh/6bxh,,,,,,7bxh/1bxh,6bxh/2bxh,5bxh/3bxh,,,,,,2bxh/8bxh,3bxh/7bxh,4bxh/6bxh,,,,,,7bxh/1bxh,6bxh/2bxh,5bxh/3bxh,,,,,,
{8}3/4,2,6/5,7,4/2,1,5/7,8,A1/A2/A3/A4/A5/A6/A7/A8/E7/E8/E1/E2/E3/E4/E5/E6/B1/B2/B3/B4/B5/B6/B7/B8/Cf/D1/D2/D3/D4/D5/D6/D7/D8,,,,,,,,,,,,,,,,,,,,,,,,,,,,,,,,A1/A2/A3/A4/A5/A6/A7/A8/E7/E8/E1/E2/E3/E4/E5/E6/B1/B2/B3/B4/B5/B6/B7/B8/Cf/D1/D2/D3/D4/D5/D6/D7/D8,,,,,,,,,,,,,,,,
{8}4h[8:1]/3h[8:1],,4h[8:1]/3h[8:1],,1h[8:1]/2h[8:1],,1h[8:1]/2h[8:1],,5h[8:1]/6h[8:1],,5h[8:1]/6h[8:1],,8h[8:1]/7h[8:1],,8h[8:1]/7h[8:1],,E
