&title=STYX HELIX
&artist=MYTH & ROID
&first=0
&des=486
&lv_5=12
&des_5=486
&inote_5=(123){4},{8},,,,,,,,,,,5/4,
6,7,
{4}8b-4[8:1],8<5[8:1]/3>8[8:1],3/8,{8}2,6/2,
{4}1>4[8:1]/5<8[8:1],5/1qq4[8:3],,,2h[4:1],
6,4/6h[4:1],5,
8/2h[4:1],1,{8}2/4,3/5,{4}7-4[8:1]/4-8[8:1],
4b/7b,1-5-2[16:3],1,{8}7,6,
{4}3/5-1[8:1],5-7[8:1],{2}5bpp4[4:1],
{4}1h[4:1],6h[4:1],5h[4:1],4h[4:1],
3h[4:1],8h[4:1],3h[4:1],4h[4:1],
5h[4:1],6h[2:1],{2}3h[4:1],
{1}3pp1[2:1],
{4}7pp5[2:1],,,1,
{8}1h[4:1],{16},,,,8-5[8:1],8,{8}8h[4:1],{16},,,,1-4[8:1],1,
{8}1h[4:1],{16},,,,8,8,{4}8-4[8:1],8,
3b,{8}6,6,{16}3,5,{8}4,7,5,
{4}8,{8}4/6,3,{4}2,3p2[8:5]*<1[8:5],
{8}3,,,,,,,7-4[8:1],
{4}4-8[8:1],2s6[4:1],{8},,7,8,
{2}1>3[8:1],1>4[4:1],
{1}8>5[2:1],
{8}7/3,{16}6,6,{4}4,{8}4/5,{16}3,5,{4}3h[4:5],
{1}6h[1:1],
{8},,,,,8>3[8:1],7,6,
{4}5b-3-8[8:1],5/2-6[8:1]*-5[8:1],2,{8}8/2,7/1,
{4}6-4[8:1]/8-4[8:1],6/8w4[8:1],{8},,,5>1[16:3],
6,7,,4<8[16:3],3,2,,3h[4:1],
,7,7-4[12:1],3,{4}3-8[12:1],6b,
{8},1/5,{4}1/5
,{8}6/2qq8pp2[2:1],2/6,,6,
6,5,{4}5,{16}6/3h[16:3],,,7h[16:3],,,{8}4,
4-1[8:1]`8b-5-8b[8:3],,,,,,,8,
4b-1[8:1],,,,,3/8,2/7,6/1,
{4}5b<8[8:1]/8b>3[8:1],5/8q5[8:1],{8},,6/4,7/3,
{4}8/2b-5[8:1],2/8-3[8:1],{8}6/8-5[12:1],,,1<5[16:3],
2,3,,8>4[16:3],7,6,,1,
8,4/7,{16}5,6,5,6,{4}5q8[4:1]*p2[4:1],5b,
,1>5[4:1],5<1[4:1],1-3-5[0.4878##0.4878],
{32}5-7-1[0.4878##0.4878],,,,,,,,,,,,,,,,{16}5h[16:3],,,3h[16:3],,,{8}8h[8:3],
1h[4:1],{16},,,,8/1,7/2,{8}6/3,,,3/7,
{4}4>1[8:1]/8<5[8:1],4/8pp5[4:1],{8}6h[4:1],{16},,,,4,5,
{1}6b/3b>6[2:1],
{4}5/3h[4:1],4,1/7h[4:1],8,
1<6[8:1],2,{8}1-5[8:1],8,{4}7,
1<2[8:3],1,{8},1,8,7,
{4}6>3[4:1],3>8[4:1],8<5[4:1],4,
8>3[8:1],7,{8}8-4[8:1],1,{4}2,
8<3[4:1],8,{8},1>5[8:1],5<1[8:1]*<1[8:1],1,
E
&lv_6=13
&des_6=Re:Restart
&inote_6=(123)
{16},,,,
,,,,
,,,,
,,,,
{16},,,,
,,,,
,,,,
,,,,
{16}7/5,,6,,
4/2,,3,,
7/5-2[8:1],,,,
5/6,,,,
{16}2/4,,3,,
5/7,,6,,
2/4-7[8:1],,,,
3/4,,,,
{16}7/5,,6h[4:1],,
4,,2,,
2/4,,3h[4:1],,
5,,7,,
{16}7/5-2[8:1],,,,
8-4[8:1],,,,
1w5[8:1],,,,
1,,,,
{16}2/4,,3,,
5/7,,6,,
2/4-7[8:1],,,,
4/3,,,,
{16}7/5,,6,,
4/2,,3,,
7/5-2[8:1],,,,
6/5,,,,
{16}2/4,,3h[4:1],,
5,,7,,
7/5,,6h[4:1],,
4,,2,,
{16}2/4-7[8:1],,,,
1-5[8:1],,,,
8w4[8:1],,,,
8,,,,
{16}3/1-6[8:1],,,,
4-8[8:1],,,,
5w1[8:1],,,,
5,,,,
{16}7h[4:3]/8h[2:1],,,,
,,,,
,,,,
C,,,,
{16}2h[4:3]/1h[2:1],,,,
,,,,
,,,,
C,,,,
{16}7h[4:3]/5h[2:1],,,,
,,,,
,,,,
E5,,,,
{16}4h[2:1]/2h[4:3],,,,
,,,,
,,,,
E5,,,,
{16}4/7h[4:1],,5,,
4h[4:1],,6,,
8-4[8:1],,,,
8/3,,,,
{16}5/2h[4:1],,4,,
5h[4:1],,3,,
1-5[8:1],,,,
1/7,,,,
{16}6qq7[8:3]/3pp2[8:3],,,,
,,,,
,,,,
,,8/2,,
{16}7h[8:1]/5h[8:1],,,,
3h[8:1]/5h[8:1],,,,
6h[8:1]/4h[8:1],,,,
2h[8:1]/4h[8:1],,,,
{16}E1,,,,
,,,,
C,,,,
,,,,
{16}E5,,,,
7h[4:1],,,,
5h[4:1],,,,
4h[4:1],,,,
{16}2h[4:1],,,,
5,,3,4,
3,4,3,,
5/2,,3,,
{16}4/7h[4:1],,5,,
4,,6,5,
6,5,6,,
4/7,,6/5,,
{16}C,,,,
,,,,
,,4,,
7/1,,5/3,,
{16}2b/6b,,3,4,
2>5[8:1],,7,,
2/8-4[8:1],,,,
8/3h[4:1],,,,
{16}5,,6,5,
7<4[8:1],,2,,
7/1h[4:1],,,,
5,,4-7[8:1]/2-6[8:1],,
{16}3,,4x/2x,,
,,4-7[8:1]/2-6[8:1],,
3,,4x/2x,,
,,1/5,,
{16}2-5[8:1],,1,,
2/8-3[8:1],,7,,
8/5w1[8:1],,,,
5x,,,,
{16}7/3,,6/5,,
8,,2,,
3/4,,1,,
7,,6/5,,
{16}4/3,,2/1,,
8/7,,,,
6xh[8:1]/5xh[8:1],,,4xh[8:1]/2xh[8:1],
,,8/7,,
{16}5/6,,3,4,
5/2,,6,5,
7/4,,2,1,
3/8,,6/5,,
{16}7-3[8:1]/4-1[8:1],,,,
7/4,,,,
2-6[8:1]/5-8[8:1],,,,
2/5,,,,
{16}7b/3b,,6,5,
7-4[8:1],,6,,
7/5-1[8:1],,,,
5/6h[4:1],,,,
{16}4,,3,4,
2-6[8:1],,5,,
2/4h[4:1],,,,
3,,5-2[8:1]/7-3[8:1],,
{16}6,,5x/7x,,
,,5-2[8:1]/7-3[8:1],,
6,,5x/7x,,
,,8/4,,
{16}7-4[8:1],,8,,
7/1-6[8:1],,2,,
1/4w8[8:1],,,,
4,,,,
{16}2/6,,3,3,
5,,1,,
6,6,4,4,
8,,7/5,,
{16}6/3,,4,4,
5,,2,,
3xh[8:1]/4xh[8:1],,,5xh[8:1]/7xh[8:1],
,,1/2,,
{16}4/3,,6,5,
4/7,,3,4,
2/5,,7,8,
6/1,,3/4,,
{16}2-6[8:1]/5-8[8:1],,3,,
2x/5x,,,,
7-3[8:1]/4-1[8:1],,6,,
7x/4x,,,,
{16}6b/2b,,5,,
4/2,4,,2,
2x-5[8:1],1,3,8,
2x,,6,,
{16}3/7,,4,,
5/7,5,,7,
7x-4[8:1],8,6,1,
7x,,3,,
{16}5/2-6[8:1],,3,,
2x/4-7[8:1],,5,,
4x/1w5[8:1],,,,
1,,,,
{16}4/7-3[8:1],,6,,
7/5-2[8:1],,4,,
5x/8w4[8:1],,,,
8x,,,,
{16}2/6,,1,,
8/6,8,,6,
6x-1[8:1],5,7,4,
6x,,2,,
{16}7/3,,8,,
1/3,1,,3,
3x-8[8:1],4,2,5,
3x,,7,,
{16}6/5,,2,,
4/3,,8,,
7/5,,1,,
4/2,,8bw4[8:1],,
{8}
