&title=阿福揍扁了成龙
&artist=成龙历险记
&first=0
&des=Biggy
&lv_5=?
&des_5=Biggy
&inote_5=
(200){4},{64},,,,,3bx-6b[64:195]/2bx-7b[64:195],{1},,,{4},,{16},,{32},7x,
6x,5x,4x,{8}3xq6[32:17],,,,,{4}8x-4[8:1],
,B6f,{24},,,,,,,,,,8x/7x,1x,
{32}2xh[32:21],{4},,{16},,{32}1x>4pp1[64:31],{1},{4},{64},,,2x<1q3<4[32:21]/7x>8p6>5[32:21],
{1},{4},{16},{32},5xp1>2[32:17]/7x-4<5[32:17],
{1},{4},{64},,,4x<5-3-7-1[64:45]/5x>4-6-2-8[64:45],
{1},{4},,{64},,,2xqq1V35[64:41]/1xpp2V86[64:41],
{1},{4},{32}A8,
E8,B7,B6,E6,A5,{1},{4},{16}2xp1[16:5],
,,,,,,,,,,,,{4}6xh[1:1]/B1h[1:1],
,,,,,2bxh[4:5]/1bxh[4:5],
{1},{4},{16},,{64},,,6x-1[32:3]/4x-1[64:7],
{4},,{64},{192},{24}8xh[24:19],
{4},,,{16},{48},{24}8x/4x,
7x/3x,6x/2x,5x/1x,8x,7x,6x,5x,4x/8x,3x/7x,2x/6x,1x/5x,{4},,{16},,{64},,{96},{32}1x/8x,
2x/7x,3x/6x,4x-1[32:13]/5x-8[32:13],{1},{16},,,{32},3xh[32:29],
{8}7xh[8:7],
{16},,,,,,,,,,,,,,,,,,,Cf/E8/E6/E7/B3/B1/B2/E2/E3/E5/B4/B5/B6/B7/B8/E4/E1,
{32},,,,,,,,3x,4x,{16}5x,{32},,1x,8x,{8}7x,{32}3x,4x,{16}5x,
{32},,1x,8x,{8}7x,{32}3x,4x,{16}5x,{32},,1x,8x,{8}7x,{32}3x,4x,{16}5x,{32},,1x,8x,{8}7x,
{4},,,{16},{32},B2/B3/B7/B6,,,,B2/B3/B7/B6,
,,,B2/B3/B7/B6,,,,7x-4-7[4:1],,,,,,,,,,,,,,,,,{4}2x-5-2[4:1],
{8},,,,4x/3x,4x/3x,{4}3x-6[8:1]/4x-7[8:1],
{1}3x/4xqq6[2:1],
{32},,,,,,,,1x/7x,2x/6x,3x/5x,4x,{1},{4},,{16},,,7b/6bp3b[16:5],
,,,,,,{2}Cf,
{8}4x,3x,4x,3x,4x,3x,{1},{4},{32},5xqq4b[32:15]*pp6b[32:15],
{4},,,{16},,,{1}3xpp3[2:3]/7xpp7[2:3],
{4},,,,C,
{24}1x,8x,7x,6x,5x,4x,3x,2x,1x,8x,7x,6x,5x,4x,3x,2x,1x,8x,
7x,6x,5x,4x,3x,2x,1x,8x,7x,6x,5x,4x,3x,2x,1x,8x,7x,6x,5x,4x,3x,2x,1x,8x,
7x,6x,5x,4x,3x,2x,{4}1xpp6b[8:3],{8},,,E7f/A7/D7/A6/E6/B6/B7/B8/E8/A8/D8,
,,,,,,,,,,,,,,,,,7xh[8:3]/1xh[8:3],
,,,,{4}3xqq5[4:3],
,,,5bx,
,,{2}4x-7[8:1]/2x-5[8:1],
{1},{4},{16},,,{64},,,4bx/5bx,
,,,,,,,,,,,,,,,,,,{32}4bx/5bx,{4},,{16},,,{64}4bx/5bx,
{4},{16},,{32},{64}4bx/5bx,{4},{16},{32}4bx/5bx,
,,,,,,4bx/5bx,,,,,,,,,,,,,{8}4bx/5bx,
E
