&title=初恋のひと。
&artist=かぴ
&first=-0.08999999
&des_5=kano
&lv_5=13+
&des=kano
&inote_5=(184){4},,,,{2}5<4[2:7],
3,
2,1h[4:1],
5,6,
7,{4}8-4[8:1],8,
{8}3,6,4,5,6h[4:1],4,4,5,
3,5/3,{4}6/2,4/3,{8}1,5,
{4}2,{8}4/3,3/4<7[8:1],,4>1[8:1],,4,
,,8,7,{4}6/4,{8}3,5,
2,2,{4}3/1-5[4:1],3,{8}2,2,
6,6,2,7,{4}3/6,7/3,
2-5[8:1],{8}2,8-4[8:1],,8,,3>5[8:3],
,,,,,,{4}7h[4:1],
{8}8,7-4[8:1],8,7,1,2-5[8:1],1,2,
8,8,7/1,6/2,{4}5/3,{8}4,6,
3,3,3/5,3/5,4/6,6/4,{16}5,7,5,7,
{8}5,6/4,3,2,{16}8,1,8,1,{4}7b/2b,
6h[4:1],{8}5,6,{16}4,5,{8}3,2,2,
{4}8-4[8:1],{8}8,2h[4:1],,,2,5,
4,5,7/3,7h[4:1]/3h[4:1],,,1,8,
2-5[8:1],7-4[8:1],2,7,,,3/4,5/2,
1,1,1/7,1,{4}1/6,{8}5/3,6/2,
8,{16}8,2,{8}8,7/3h[4:1],,,{4}6<4[8:5],
{8}6h[2:1],,,,,,,6/4,
{4}7/3,{8}2/1,3/8,{4}4>1[4:1],1<6[4:1],
6>3[4:1],3>8[4:1],8<5[4:1],5,
8bw4[4:1],{8},,,,1/7,7/1,
2/5,{16}3,4,{8}3,5,{4}4/6-1[8:1],3-7[8:1],
8<2[4:1],5h[4:1],{8},,1,1,
8/2,{16}6,4,{8}5,3,{4}4/2-4[8:1],5/2-6[8:1],
2<5[4:1],8h[4:1],{8},,4,7/3,
2/1,{16}3,4,3,4,{8}3,{16}6,5,6,5,{4}7-4[8:1],
7/8<3[4:1],8b,{8},,8,7,
{4}6>3[4:1],3>8[4:1],8<5[4:1],5,
4-8[8:1],4<7[8:1]*>1[8:1],4w8[8:1],4b,
{8}2,{16}6,5,{8}6,4,{4}5/3-8[8:1],3/6-2[8:1],
6/1>7[4:1],4h[4:1],{8},,8,8,
1/7,{16}3,5,{8}4,6,{4}7-5[8:1]/5-8[8:1],7-3[8:1],
7>4[4:1],1h[4:1],{8},,5/3,2/6,
7/8,{16}6,5,7,5,{8}6,{16}3,4,3,4,{4}2-5[8:1],
2/1>6[4:1],1b,{8},,1,2,
{4}3<6[4:1],6<1[4:1],1>4[4:1],4,
{12}6,7,8,4,3,2,{4}5h[4:1],{8}4,4,
{4}3<6[8:1],3/8-4[8:1],8,{8}3,5/3,
{4}6<1[8:1],6/4-8[8:1],4,{8}5,6/2,
{4}7/3-6[8:1],3/8-4[8:1],2>7[4:1],{8}2,8,
{4}8-2[8:1]*-3[8:1],8-5[8:1]*-6[8:1],8b,{8}4,3,
{4}2/5<2[4:1],2<5[4:1],3,{8}2,2,
{4}1-5[8:1]/8-6[8:1],8-4[8:1]/1-3[8:1],8b/1b,{8}2/7,7/2,
{4}3/4-8[4:1],8<2[2:1],2,{8}1,1,
{1}1bw5[8:3],
{4}6h[8:3],{8}5,4-2[8:1],,1,{4}8-6[8:1],
5/8,{8}4,3>1[8:1],,8,{4}7<5[8:1],
{8}3,3,3,4,4,2,5,6,
7,1,2,3,4/5,6,{4}7/5,
{2}4b/2>8[4:13],8,
1,2h[4:1],
{4}3,{8}3,3,,4,,2h[8:5],
,,,,,,1,1,
7/2,3-1[8:1],4,3,,5,6/4,7/3,
2-5[8:1],8-4[8:1],2,8,{4}1,{8}5,5,
{4}6/3,{8}2/1,3/8,,6/4,,5h[8:5]/3h[8:5],
,,,,,,4,4,
7,7,7/4,7,1,1,1/8,1,
6,7/5,3,2/4,{4}4/2,{8}7,3,
{4}6/1-4[8:1],{8}5,6-2[8:1],,3>6[8:3],,8h[8:3],
,,,,5,5,{16}6,4,6,4,
{8}7,7-4[8:1],8,7,2,2-5[8:1],1,2,
8-6[8:1],7,8/1-4[8:1],2,{4}1/8,{8}6,7/5,
8,8,2,2,4,4,5,5,
6/4,6/4,7/3,7/3,{16}2,8,2,8,{8}1b,1b,
{4}7-4[8:1],{8}7/2,1-5[8:1],,,6,6,
4-1[8:1],4-7[8:1],,,,,8,8,
{4}2-5[8:1],{8}2/7,8-4[8:1],,3,3,3,
5-8[8:1],5-2[8:1],,,,,1,1,
2/8,7/3,6/4,5-7[8:1],,,4,4,
3/5,6/2,{16}7,1,7,1,{4}8-4[8:1],8<1[4:7],
{1}1h[2:1],
{2}7,{4}6,5,
{8}2/6,2/6,7/3,7/3,8/4,8/4,7/3,6/2,
5-8[8:1]/1-4[8:1],5/1,,,7-2[8:1]/3-6[8:1],7/3,,,8/4,
6-3[8:1],2,1,{4}1-6[8:1],2/1-4[8:1],
7/1<6[8:1],{32}1,2,3,4,,,,,,,,,,,,,{8}5,4/6,
3-7[8:1],2,1,8,{4}8-3[8:1],7/8-5[8:1],
2/8>3[8:1],{32}8,7,6,5,,,,,,,,,,,,,{8}5/3,3/5,
{16}4,6,{8}4,7-3[8:1],2,{4}7<4[8:1],1/7>2[8:1],
7/3,{32}7/3,6,5,4,,,,,,,,,,,,,{8}4/8,4/8,
{4}1V35[4:1],5<1[4:1],1>5[4:1],5,
1-4[8:1],1-6[8:1],1>4[8:1],{8}1,8,
8,3-6[8:1],7,7,{4}8-3[8:1],7/8-5[8:1],
2/8>3[8:1],{32}8,7,6,5,,,,,,,,,,,,,{8}4,5/3,
6-2[8:1],7,8,1,{4}1-6[8:1],2/1-4[8:1],
7/1<6[8:1],{32}1,2,3,4,,,,,,,,,,,,,{8}4/6,6/4,
{16}5,3,{8}5,2-6[8:1],7,{4}2>5[8:1],8/2-7[8:1],
2/6<1[8:1],{32}2,3,4,5,,,,,,,,,,,,,{8}5/1,5/1,
{4}1V75[4:1],5>1[4:1],1<5[4:1],5,
{12}3,2,1,4,5,6,{4}7h[6:1]/1h[6:1],{8}2,7,
{4}2h[2:1]/4-7[8:1],4>6[4:1],4,{8}2,2,
{4}3-7[8:1]/7-3[8:1],7<4[8:1]/3>8[8:1],{8},,5/1,5/1,
{4}8-2[8:1]/4-6[8:1],8-4[8:1]/4-8[8:1],{8},,6/2,6/2,
{4}1-5[8:1],1/7<4[8:1],{32}4,3,2,1,,,,,{8}8,8,
{4}1/7<2[4:1],2>7[4:1],1,{8}1,1,
{4}8-3[8:1]/2-7[8:1],8-5[8:1]/2-5[8:1],{8},,7/3,3/7,
{4}4>1[4:1],1<6[4:1],6,{8}4pp4[2:1]*qq4[2:1],4,
,,,,,,{4}7<4[4:1],
{2}1h[4:1],{4}2,2,
{2}8h[4:1]/3<6[4:1],{4}8,8,
{2}1h[4:1]/7<4[16:3],{4}2,3,
4h[4:1]/6h[4:1],,,5,
6/4,5/3,6/2,7/1,
{2}1h[4:1]/7-4[4:1],{4}2,3,
{2}4>6[2:1],{4}5,5pp5[2:1]*qq5[2:1],
5,,,7/3,
{8}2h[4:1],1,{4}1,8,7,
{8}4h[4:1],6,6,4,{4}3/5,6/2,
{8}1-5[8:1],5,{4}1,{8}7-3[8:1],3,{4}7,
1<6[8:1],1>4[8:1],1-5[8:1],1w5[8:1],
{2}1,7h[4:1]/3h[4:1],
6h[4:1]/4h[4:1],{4}5,5,
{1}8h[2:1]/2h[2:1],
7h[2:1]/1h[2:1],
{16}3,4,3,4,,,6,5,6,5,,,2,4,2,4,
,,7,5,7,5,,,1,8,2,7,1,8,3,6,
{2}1b-5[8:1],{16}6h[16:3],,,7h[16:3],,,{8}8h[8:1],
1-5[8:1],,,7,{4}7-4[8:1],{8}7/2,1,
8-3[8:1],,,6,{4}6-2[8:1],6/2,
{8}4>1[8:1],,,8,{4}8,7/1,
2/6,3/4,7/5,{8}3h[4:1],4,
{4}5,{16}4,6,5,6,5,7,4,5,3,6,4,7,
{4}5>2[4:1],2<7[4:1],7<4[4:1],4,
{8}8h[4:1],,,7/1,{4}7/1,2b/8b,
6-1[8:1],{8}3,3,{4}2-6[8:1],2/8-5[8:1],
8/4-1[8:1],4/8h[4:1],,3/1,
7/2-6[8:1],{8}6,7,{4}8-4[8:1],8/1-5[8:1],
1/2-6[8:1],2/1-5[8:1],1/8-4[8:1],8/7-3[8:1],
{2}7/1h[4:1],{4}5h[2:1],4,
4h[2:1],{8}5,5,,5,{4}6/4,
7-1[8:1],7/5,2-6[8:1],2/1,
{1}8<1[2:1],
{8}3,4,3,6,{4}6h[4:1],5,
4/6,5h[4:1]/3h[4:1],{8},,8,8,
2,1,8h[4:1],1,{4}1h[4:1],8,
7/1,8h[4:1]/2h[4:1],{8},,6/4,6/4,
{16}3,5,{8}3,{16}6,5,{8}6,{16}4,5,{8}3,{16}6,5,{8}7,
{4}1h[4:1],8b,{8},,7/2,7/2,
{1}4w8[2:1],
{4}5-7[8:1]/4-2[8:1],5-1[8:1]/4-8[8:1],5/4,7b/2b,
{8}8/1,{16}3,4,3,4,{8}2,{16}6,5,7,5,{4}6-8[8:1],
3/6-2[8:1],2,{8},,4/3,5/2,
7/8,5-2[8:1],6-1[8:1],5,{4}6-3[8:1],6/2-5[8:1],
2/8w4[8:1],8,{8},,6/2,6/2,
3-8[8:1],2,3<6[8:1],5,{4}3,8-4[8:1],
8/4pp4[4:1]*qq4[4:1],{8},,,,7/4,7/4,
{4}6-8[4:1],8-5[4:1],5-1[4:1],1-4[4:1],
4>6[2:1],{8},,,,4,4,
{4}5/3>8[8:1],{32}8-4[8:1],7,6,5,,,,,{2}4-7[8:1]*-1[8:1],
{4}2/6<1[8:1],{32}1-5[8:1],2,3,4,,,,,{2}5<8[8:1]*>2[8:1],
{4}7-3[8:1]/3-7[8:1],7>2[8:1]/3<6[8:1],{8},,1/5,5/1,
{4}8-5[8:1]/4-1[8:1],8-3[8:1]/4-7[8:1],{8},,6/2,6/2,
4/3<6[8:1],{16}2,1,{4}3/8-4[8:1],8,{8}5/3,6/4,
4/6>3[8:1],{16}7,8,{4}6/1-5[8:1],1,{8}6/4,6/4,
{4}7/3<8[4:1],8q2[4:1],{2}5h[4:1],
{1}7b/3b,
E
