&title=A Sunny Day is Watching over You (Nakaiankow Hardstyle Remix)
&artist=Nakaiankow
&first=0
&des=Likulau
&lv_5=13+
&inote_5=(150)
{1},,
{16}4,,3,,4,,5^2[8:3],,,,,,,,,,
{16}5,,6,,5,,4^7[8:3],,,,,,,,,,
{16}4,,3,,4-1[8:3],,5-8[4:1],,,,,,,,,,
{16}2xh[4:3]/7xh[4:3],,,,,,,,,,,,,,,,
{16}34,,,,25,,,,16,,,,78,,,,
{16}65,,,,74,,,,83,,,,21,,{24}8x,7x,6x,
{16}5x/3,,3,,34,,3,,32,,3,,34,,3,,
{16}46,,6,,65,,6,,67,,6,,6/5<4[4:7],,6,,
{16},,,,,,,,,,,,,,,,
{16}E7,,,,B5,,,,B1,,,,E3,,,5x,
{16}3xh[8:1],,,,2h[8:1]/4h[8:1],,,,6h[8:1],,,,5h[8:1]/7h[8:1],,,,
{16}28,,2x/8x-4[8:1],,,,3,,3-5[8:1],,,7,3,,7,,
{16}6xh[8:1]/5xh[8:1],,,,48,,8,,5h[8:1]/7h[8:1],,,,14,,1,,
{16}3h[8:1]/4h[8:1],,,,51,,1,,4h[8:1]/2h[8:1],,,,1x/7x,,17,,
{16}2x-5[8:1]/6x-3[8:1],,26,,2^7[8:1]/6,,,,6^3[8:1],,,,1-7v6-3-5-2b[8:7],,,,
{16},,,,,,,,1-6[8:1],,,,1b,,,,
{16},,3x/4x,,4x/5x,,5x/6x,,3b/7b,,2h[8:1],,1,,2,,
{16}37,,1h[8:1],,8,,2,2,4,,2h[8:1],,1,,2,,
{16}36,,1h[8:1],,8,,2,2,4,,2h[8:1],,1,,2,,
{16}35,,1h[8:1],,8,,2,2,4-8[8:1],,2,,1x,,,,
{16}6b/1b,,8h[8:1],,1,,7,7,5,,7h[8:1],,8,,7,,
{16}62,,8h[8:1],,1,,7,7,5,,7h[8:1],,8,,7,,
{16}6b/3b,,8h[8:1],,1,,7,7,5,,7h[8:1],,8,,7,,
{16}6b/4b,,8h[8:1],,1,,7,7,5w1[8:1],,46,,,,,,
{16}6hb[16:6]/E3f,,,,,,5,,5-3[16:2],,6h[16:4],,,,,,
{16}2/4h[16:6],,3,,3,,3,,5h[16:6]/7,,6,,6,,6,,
{16}3hb[16:6]/7,,,,,,4,,4-6[16:2],,3h[16:4],,,,,,
{16}7h[16:6]/5,,3,,3,,3,,2h[16:6]/4,,6,,6,,6,,
{16}1hb[16:4]/5hb[16:4],,,,,,37,,7-3[16:2]/3,,1h[4:1],,,,,,
{16}2h[8:1]/4h[8:1],,,,3h[16:2]/5h[16:2],,,,4h[16:2]/6h[16:2],,,,5h[16:2]/7h[16:2],,,,
{16}8<4[16:2]*>4[16:2],,,,,,,,1>5[16:2]*<5[16:2],,,,,,,,
{16}3^8[16:2],,,,7^4[16:2],,,,1>7[16:4],,,,6,,,,
{16}8hb[16:6],,,,,,4,,4-1[16:2],,7h[16:4],,,,,,
{16}3^5[16:2],,6,,6,,6,,7^5[16:2],,3,,3,,3,,
{16}1hb[16:6],,,,,,5,,5-8[16:2],,2h[16:4],,,,,,
{16}6^4[16:2],,3,,3,,3,,2^4[16:2],,6,,6,,6,,
{16}3hb[16:4]/7hb[16:4],,,,,,26,,2-5[16:2]/6v1[16:2],,8,,,,,,
{16}3h[16:2]/7h[16:2],,,,4h[16:2]/5h[16:2],,,,2h[16:2]/6h[16:2],,,,4h[16:2]/5h[16:2],,,,
{16}3^6[16:2]/7h[16:4],,,,,,7,,7^2[16:2]/3h[16:4],,,,,,3,,
{16}6pp1[16:8]/3,,,,2V46[16:4],,,,,,,,,,,,
{16}7hx[16:4]/3x,,,,E1,E8,E7,E6,7hx[16:4],,,,E8,E7,E6,E5,
{16}7hx[16:4],,,,E7,E6,E5,E4,7hx[16:4],,,,E6,E5,E4,E3,
{16}8xbh[4:1],,,,3,8,3,8,2xh[4:1],,,,4,2,4,2,
{16}6hx[16:4],,,,5,6,5,6,4hx[16:4],,,,5,4,6,3,
{16}2hx[16:4]/7x,,,,E1,E2,E3,E4,2hx[16:4],,,,E2,E3,E4,E5,
{16}2hx[16:4],,,,E3,E4,E5,E6,2hx[16:4],,,,E4,E5,E6,E7,
{16}1xbh[4:1],,,,6,1,6,1,7xh[4:1],,,,5,7,5,7,
{16}3hx[16:4],,,,4,3,4,3,5hx[16:4],,,,4,5,3,6,
{16}7x/1x,,,,1x/E6,,,,1x/E5/D5,,,,1x/E4/D4/A3,,,,
{16}2x/8x,,,,8x/E4,,,,8x/E5/D5,,,,8x/E6/D6/A6,,,,
{16}3x/7h[16:1],,1x/2h[16:1],,4x/5h[16:1],,3x/8h[16:1],,6x/2h[16:1],,8x/7h[16:1],,5x/4h[16:1],,2h[16:1]/6x,,
{48}1x/7x,D2/D7,A2/A6,D3/D6,A3/A5,D4/D5,A4f,,,,,,{16},,Chf[16:6],,,,,,,,,,
{16}8b-5[16:2]/7b-5[16:2],,,,7-3[16:2]/8,,,,4-1[16:2]/7,,,,5^8[16:2]/4,,,,
{16}2-4[16:2]/5-1[16:2],,,,2^7[16:2]/5,,,,4qq3[6:1]/2,,,,6^1[16:2]/4,,,,
{16}6-4[16:2]/2-5[16:2],,,,2-7[16:2]/6,,,,4-1[16:2]/2,,,,6-3[16:2]/4,,,,
{16}8-4[16:2]*-3[16:2]/6,,,,8-6[8:1]*-5[8:1],,,,8w4[8:1],,,,8b,,,,
{16}3q7[16:2]/4p8[16:2],,,,3^6[16:2]/4,,,,1-5[16:2]/3,,,,4-2[16:2]/1,,,,
{16}4-8[16:2]/6-3[16:2],,,,4^7[16:2]/6,,,,1^4[16:2]/4,,,,{32}8xb,7x,6x,5x,,,,,
{16}3b-8[16:2],,4,,6b-2[16:2],,5,,3b-7[16:2],,4,,6b-1[16:2],,5,,
{16}3b-5[16:2],,4,,7b-4[16:2],,8,,2b-6[16:2],,1,,7b,,8,,
{16}1b^6[16:2]/5b^2[16:2],,,,1-5[16:2]/5,,,,6-1[16:2]/1,,,,3^6[16:2]/6,,,,
{16}3-8[16:2]/7-3[16:2],,,,7^2[16:2]/3,,,,5pp6[6:1]/7,,,,3^8[16:2]/5,,,,
{16}4-6[16:2]/3-5[16:2],,,,4-1[16:2]/3,,,,4-7[16:2]/6,,,,2-6[16:2]/4,,,,
{16}1-5[16:2]*-4[16:2]/2,,,,1-7[8:1]*-6[8:1],,,,1w5b[16:2],,,,1b,,,,
{16}7v4[16:2]/8-4[16:2],,,,7^2[16:2]/8,,,,5-1[16:2]/7,,,,8-4[16:2]/5,,,,
{16}8v6[16:2]/2-6[16:2],,,,8^3[8:1]/2,,,,8^5[16:2]/5,,,,{32}4xb,3x,2x,1x,,,,,
{16}7b-3[16:2],,8,,2b-5[16:2],,1,,7b-3[16:2],,8,,1b-6[16:2],,2,,
{16}4b-8[16:2],,5,,3b^6[16:2],,2,,7b^2[16:2],,8,,4b,,3,,
{32}1xbp5p1b[4:6]/2xb,38,47,56,,,,,,,,,,,,,{4},,
{16},,,,,,,,,,,,5q1[4:3]*p1[4:3],,5,,
{16},,,,,,,,,,,,,,,,
{16}1/2h[16:3],,,4,3,,25,,7h[16:3]/8,,,5,6xb/E5f,,,,
{16}34,,2,,34,,1,,3/4-7[8:1],,2,,14,,,,
{16}38,,4,,38,,5,,3/8-4[8:1],,2,2,8,,,,
{16}34,,2,,3,5,,5,4-7[8:1],,2,,14,,,,
{16}28,,7,,3,7,,7,1^4[8:1],,36,,{32}8,7x,6x,5x,{16},,
{16}65,,7,,65,,8,,6/5-2[8:1],,7,,85,,,,
{16}61,,5,,61,,4,,6/1-5[8:1],,7,7,1,,,,
{16}65,,7,,6,4,,4,5-2[8:1],,7,,85,,,,
{16}7b/1h[4:3],,,,,,,,3s7b[4:1],,,,,,,,
{16}4,,,,4,,,,4-2[8:1],,,,4h[4:1],,,,
{16}5,,,,5,,,,5-7[8:1],,,,5h[4:1],,,,
{16}4,,,,4,,,,4-2[8:1],,,,4h[4:1],,,,
{16}5,,,,5,,,,5-7[8:1]*-3[8:1],,,,,,,,
{16}A1/B1/C,,,,A2/B2/C,,,,A3/B3/C,,,,A4/B4/C,,,,
{16}A5/B5/C,,,,A6/B6/C,,,,A7/B7/C,,,,A8/B8/C,,,,
{16}Ch[4:7]/D2/E2,,,,D3/E3,,,,D4/E4,,,,D5/E5,,,,
{16}D6/E6,,,,D7/E7,,,,D8/E8,,,,D1/E1,,,,
{16},,,,,,,,,,,,,,,,
