&title=僕らは今のなかで
&artist=μ's
&first=0
&des=柠檬红茶
&clock_count=4
&lv_5=13
&inote_5=(196)
{1}
,
{1}
4h[1:1],6h[1:1],2h[2:3],7<4[2:1],
{1}
3h[1:1],7h[2:3],Chf[1:2],5-8[2:1],
{4}
6hx[8:7],,,
{8}
4,4hx[8:3],
{4}
,5,3/4,
{8}
1/2,3hx[4:3]/8hx[2:1],,,,,,7,6,3hx[8:5]/5hx[8:5],
{4}
,,,4-8[8:1]b,4bx,
{8}
3,3,,5,,4/6h[8:3],,,5,,
{4}
5/6,4/5,3>8[4:1],
{8}
4,4,,,6<1[4:1],6,
{4}
,4-1[8:1],4p8[8:1],4,2v3[4:1]-1[8:1]/7v6[4:1]-8[8:1],,
{8}
,,,
{4}
1x/8x,1x/8x,2b/7b,
{8}
,7h[4:1],,1>4[8:1],,8,,7<4[8:1],7,2,,
{8}
B3,B4,B5,B6,,2,2h[4:1],,
{8}
8<5[8:1],,1,,2>5[8:1],2,7,,
{8}
B6,B5,B4,B3,,6,6h[4:1],,
{8}
4p8[8:1],,5,,6<1[8:1],6,2,,
{8}
A3,A4,A5,A6,,2-4[8:1],2,,
{8}
5q1[8:1],,4,,3>8[8:1],3,6,
{4}
7b-3[8:1],7b-1[12:1]>2[24:1]*-5[12:1]>4[24:1],7b,
{8}
,5w1[8:1],,5,,3-8[8:1]/7,3/7h[4:1],,
{4}
,
{8}
5,5,,6-1[8:1]/2,6/2h[4:1],,,,3,
{8}
3h[8:3],,,5h[8:3],1,2,3,4,
{4}
8x-4[8:1],3x<6[8:1],7x-3[8:1],1w5[8:1],
{4}
1b,7h[4:1],1h[4:1],
{8}
5,5h[2:1],,,,3h[4:1],1,8,7,6,5h[4:1],,
{8}
8,8,1/7,2,3/6,
{4}
5b-1[8:1],5b<8[8:1]b*>2[8:1]b,5b,,
{8}
,
{2}
6>3[8:3],C,3<6[8:3],C,6>3[8:3],C,
{8}
3<6[8:3],,,8x,8x,,7x,6xV84[2:1],
{2}
,A2,3V15[8:3],A7,6V84[8:3],A2,4>4[2:1]*<4[2:1],,
{32}
D5,E5,Cf/B4/B5,B8/E1/B1,
{8}
,
{8}
6x,6x,5x/7x,,3,3,2/4,,4-2[12:1]/5-7[12:1],4/5,
{4}
,
{8}
,4/5,1/6,7,3/8,2qq7[2:1],,6,5,5h[4:1],
{8}
,,6xqq8[2:1]b,,2,,3x,3x,
{4}
4h[4:1],7,6z2[8:3],
{8}
1,1,
{4}
,3h[4:1],5h[8:3],
{8}
4,4,
{2}
3V58[8:3]/6V41[8:3],
{8}
,,,D1f,,2b/7b,,
{8}
6,4/5,3,1>6[2:1]/2,8,
{2}
1x/7h[2:1],
{4}
,
{8}
5pp5[8:3]qq5[8:3],5,
{4}
,1,2,3x,
{8}
4h[8:1]/5h[8:1],,4/5h[8:1],3,,3/5h[8:5],2,1h[8:3]b,
{4}
,,
{8}
5/4,,8/3,8h[4:1]/3h[4:1],,,
{4}
2>5[6:1]/1q6[6:1],2/1,
{8}
,1h[4:1]/6hx[4:1],,,
{4}
7<4[6:1]b/8p3[6:1]b,7/8,
{8}
,3x-1[8:1],,3,5-7[8:1],5,4,,2x-5[8:1]/7x-4[8:1],2x/7x,,,,
{8}
3,5/4,6,8<3[2:1]/7,1,
{2}
8x/2h[2:1],
{4}
,
{8}
7h[2:1],B6/B5/B4/B3/E5,
{4}
,6h[4:1],5h[4:1],4,
{8}
4x>1[8:1],,4x,4x<7[8:1],,4x,3,3-1[8:1]*-7[8:1],
{4}
,,
{8}
5/4,,1/6,1h[4:1]/6h[4:1],,,
{4}
7<4[6:1]/8p3[6:1],7/8,
{8}
,8h[4:1]/3hx[4:1],,,
{4}
2>5[6:1]b/1q6[6:1]b,2/1,
{8}
,6x-8[12:1],6,4-2[12:1],4,5-1[8:1],5,2>7[2:1],,2,
{8}
,8,8,8,
{8}
4/7x,6,3/5,4,
{4}
1-5[8:1]b/2,1/8,1-5[8:1]b/2,1/8,
{8}
6<2[4:1]<6[4:1],,3,4h[8:3],
{2}
,
{8}
2/4,3,4/5,6,,7p4[2:1],,,A8,A1,A2,A3f,,5,4/6,,
{4}
1-5[8:1]b/2,1/8,1-5[8:1]b/2,1/8,
{8}
6h[4:3],,2V48[4:1],2,
{2}
,
{8}
4/5,6,1/7,8,,1q8[16:5]-6[16:3]/2v3[16:5]<5[16:3],1/2,1/2,
{2}
,
{8}
,3<3[2:3]/6>6[2:3],3/6,3/6,
{1}
,,
{4}
6h[2:1],B2/B3,3h[2:1],B7/B6,5h[2:1],E2/B2,4h[2:1],E8/B7,
{4}
6<1[4:1],1>4[4:1],4<7[4:1],1bx,
{4}
3>8[4:1],8<5[4:1],5>2[4:1],8bx,
{4}
6-1[8:1],2,3-8[8:1],7,6-3[8:1],2,3x-6[8:1],7,
{8}
5h[8:3],,4,4,,3pp8[2:1],,3,8,,7,7,,6qq1[2:1],,6,
{8}
,1,2,3,,7,6,5,
{4}
3/4,4/5,5/6,4/5,
{16}
8x,7,6,5,1x,2,3,4,7x,6,5,4,2x,3,4,5,8x,7,6,5,4,3,2,1,
{2}
8b/B3/B4/E4f,
{4}
7-4[8:1],1-5[8:1]/7,1/6-1[8:1],4/6,
{1}
Ch[1:1],
{8}
,,,6hx[8:11],D5,E5,C,E1,
{1}
D1f,
{2}
3hx[2:1]/E1/D1f,
{16}
,,5,5,
{4}
4,
{8}
4h[8:1]/5h[8:1],,4h[8:1]/5,6,,3/5h[8:5],2,1h[8:3]b,
{4}
,,
{8}
4/5,,1/6,1h[4:1]/6h[4:1],
{8}
,,7-4[6:1]/8-4[6:1],,7/8,,,
{8}
8h[4:1]/3h[4:1],
{8}
,,2-5[6:1]b/1-5[6:1]b,,2/1,,,
{8}
4h[4:1],,,5/7,6,2/4,3,4-1[8:1]b/5-8[8:1]b,4/5,
{4}
,
{8}
,7,4/6,5,2<5[4:3]/4,3,
{2}
1h[2:1]/2b,
{4}
,
{8}
8-3[8:1]*-4[8:1],8,,,
{4}
7-4[8:1],3-7[8:1]/7,3,8x<5[8:1],
{8}
8x,8x>4[8:1],,8x,5w1[8:1],5,
{2}
,
{8}
4h[4:1]/7,,8,8,1xp5[8:1]/5xp1[8:1],,1>5[6:1]/5<1[6:1],,1/5,
{8}
,,8/4,8xp4[8:1]/4xp8[8:1],,8>4[6:1]/4<8[6:1],,8/4,,,
{8}
2-6[8:1],2,1-5[8:1],1,8-4[8:1],8,7p2[8:3]*<2[8:3]b,
{2}
,
{16}
,,,,B4,E4,E7,B6,B2,E3,E8,B8f,
{4}
1x-5b[8:1]/3x,1/7,1-5[8:1]b/3,1/7,
{8}
6h[4:1],,4,4,3/5,2,1/8,,
{8}
1/6,7,3/8,2>5[8:1],1/7h[4:1],,,,
{8}
4/6,5,3/5,4w8[8:1],
{2}
,
{4}
8-4b[8:1]/6,8/2,8-4[8:1]b/6,8/2,
{8}
3h[4:1],,5,5,6/4,7,8/1,,
{8}
4<2[8:5],6,7,8,,E7,E6,E5,
{8}
,6,3,3,
{16}
E8,B8,B2,E3,E7,B6,B4,E4f,
{4}
2x/5x-1[8:1]b,5/7,2/5-1[8:1]b,5/7,
{4}
6<2[4:1]<6[4:1],
{8}
3,3,,4,4,,
{8}
3/5,4,5/6,7<4[8:1],1h[4:1]/8,,,,
{8}
2-6[8:1],2,1,1w5[8:1],,,,,
{4}
4-1[8:1]b/6-1[8:1]b,4b/6b,3-8[8:1]b/5-8[8:1]b,3b/5b,
{8}
1,2/8,8,1/7,2,3/6,5h[8:5],
{8}
,4,3,2,1>4[6:1],,7,8,1<6[6:1],,
{8}
3,3h[8:1],,
{16}
2,6,2,6,2,6,2,6,
{1}
1bxv2[4:3]>4[2:1]*q8[4:3]-6[2:1],,
{1}
4qq5[4:5]/5pp4[4:5],,
{8}
4h[4:1]/5h[4:1],,,
{16}
4,4,
{8}
5h[4:1],3,3,3,
{8}
,,,4,5h[4:1],3,3,3,
{8}
,,,4,5h[4:1],3,3,3,
{8}
,,,Ch[4:13]f,A8,D8,A7,D7,A6,,D6,A5,
