&title=Sprintrances
&artist=Taishi
&first=0
&des=Kurene_Saka
&des_5=mai-Star
&des_7=iCE&des_7=iCE
&wholebpm=178
&demo_seek=
&demo_len=
&lv_5=11+
&lv_6=13+
&lv_7=12+
&inote_1=(178)
{1},
{4}1^4[8:1],1-5[4:1],,8^3[8:1],
{4}8^5[8:1],8-4[4:1],,2^7[8:1],
{4}2^5[8:1],2-6[4:1],,7^2[8:1],
{4}7^4[8:1],7-3[4:1],,8^5[4:1],
{8}8,2,,4,3,2,1>4[4:1],8,
{8}1,7,,5,6,7,8-5[4:1],1-4[4:1],
{8}8,1,,6,7,8,1,2,
{16}3h[8:3],,2,1,8,7,6h[8:3],,7,8,1,2,3,,3b/6b,,
{8}7h[8:3]/2-6[4:1],,2,,,7,7^4[8:1],,
{8}2h[8:3]/7-3[4:1],,7,,,2,1^4[8:1],8,
{8}7h[8:3]/1-5[4:1],,1,,,7,8^5[8:1],,
{8}2h[8:3]/8-4[4:1],,8,,,1,8^3[8:1],7,
{8}6h[8:3]/8-4[4:1],,8,,,8,1^6[8:1],,
{8}3h[8:3]/1-5[4:1],,1,,,4,5^8[8:1],6,
{8}7h[8:3]/5-1[4:1],,5,,,5,4^1[8:1],,
{8}2h[8:3]/4-8[4:1],,4,,,1,1,,
{8}7,8,1^4[8:3],2^5[8:3],3^6[8:3]/1,,,,
{8}2,1,8-3[8:1],7,6/8-5[8:1],,28,,
{8}2,1,8^5[8:3],7^4[8:3],6^3[8:3]/8,,,,
{8}7,8,1-6[8:1],2,3/1-4[8:1],,71,,
{8}2-7[8:1],7-2[8:1],2,,6-3[8:1],3-6[8:1],6,,
{8}1-5[8:1],2,13,,7-2[8:1]/3-6[8:1],,37,,
{8}8^5[8:1],5^8[8:1],8,,4^1[8:1],1^4[8:1],4,,
{8}8,7,2-5[8:1]/6-1[8:1],1^6[8:1]/5^2[8:1],26,,,,
{1}2^7[2:1]/6h[4:3],
{1}7-3[2:1]/2h[4:3],
{1}3^6[2:1]/7h[4:3],
{8}6-2[2:1]/3h[4:1],6,6h,,1h,,3h,,
{8}14,8/5^2[4:1],,8,7,6,5,4-8[8:1]/1-5[8:1],
{8}14,4/1^6[4:1],,4,3,2,1,5-1[8:1]/8-4[8:1],
{8}58,5/8^3[4:1],,5,6,7,8,1,
{8}8-5[8:1]/4-1[8:1],84,8^3[8:1]/4^7[8:1],,8-4[8:1]/4-8[8:1],,84,,
{4}1-5[2:1]/2h[8:1],4h[8:1],6h[8:1],8h[8:1],
{4}8-4[2:1]/7h[8:1],5h[8:1],3h[8:1],1h[8:1],
{8}27,36,2-5[8:1]/7-4[8:1],5^2[8:1]/4^7[8:1],7-2[8:1]/2-7[8:1],,,,
{8}36,27,3-8[8:1]/6-1[8:1],8-3[8:1]/1-6[8:1],6^3[8:1]/3^6[8:1],,,,
{4}8h[8:1]/1h[8:1],7h[8:1]/8h[8:1],6h[8:1]/7h[8:1],5h[8:1]/6h[8:1],
{4}4h[8:1]/5h[8:1],3h[8:1]/4h[8:1],2h[8:1]/3h[8:1],1h[8:1]/2h[8:1],
{8}81,21,32,43,54,65,76,87,
{16}1,2,3,4,5,6,7,8,{32}1-5[8:1],8,7,6,5-1[8:1],4,3,2,{4}1b,
{8}7h[2:1],,8,,6-1[8:1],5-2[8:1],6,5,
{8},8-5[8:1],7,8-3[8:1]/6-2[8:1],,68,,,
{8}5h[4:1],,1-4[8:1],4-1[8:1],1-6[8:1],6-1[8:1],5,5h[8:5],
{8},,2,,3,3,{32}3-7[4:1],4,5,6,7,8,1,2,
{8}3h[2:1],,,,1-5[8:1],7-4[8:1],1,7^2[8:1],
{8},7^4[8:1],,7-3[8:1],,7h[8:3],,,
{8}1-5[8:1],6-3[8:1],1,6,2-7[8:1],7^2[8:1],2^5[8:1],5-1[8:1],
{8}6h[4:3],,,,8,8,{32}8-4[8:1],1,2,3,8,7,6,5,
{8}8b,,5h[4:1],,6-3[8:1],7-2[8:1],6,7,
{8},4-1[8:1],5,4^7[8:1]/6-2[8:1],,46,,,
{8}1h[4:1],,8^3[16:3],2^5[16:3],4^7[16:3],6^1[16:3],8^3[16:3],8h[8:5],
{8},,,,4,4,{32}4,3,2,1,4/8,37,26,15,
{8}4h[2:1]/8h[4:1],,,,1-5[8:1],5-1[8:1],1^4[8:1],6^1[8:1],
{8},6^3[8:1],,6-2[8:1],,6h[8:3],,,
1^4[8:1],5^8[8:1],1-6[8:1],5-2[8:1],1-4[8:1],5-8[8:5],1,5b,
{1},
,,,,
E
&inote_4=(178)
{1},
{8}8,7,8,,1,8,1,,2,1,2,,3,2,3,,
4,3,5,4,6,5,4,3,6,5,6,5,4,5,4,3,
2,4,5-8[8:1],,6,4,3,6,7,5,4-1[8:1],5,3,5,6,3,
2,4,5-1[8:1],7,4-8[8:1],3,5,6,{16}8,7,1,6,2,5,3,4,2,1,3,8,4h[4:1],,1b,,
{8}7h[1:1],5,3,2,,8,8,,1h[1:1],4,6,7,,5,5,,6h[1:1],8,2,4,,3,3,2,1h[1:1],7,5,4,6,,2,8,
7h[1:1],3,4,5,,1,1,,2h[1:1],8,6,4,,5,5,,7h[1:1],4,5,3,,1,8,1,2h[4:3],3,4,5,6,7,8,,
5/6,4,2,3,4/5,3,1,2,3/4,2,8,1,2/3-8[8:1],,1b,,2/4,5,7,3,4/6,7,1,5,6/8,1,3,7,2/8,3,1,5,
4/3,5,7,6,5/4,6,8,7,6/5,7,1,8,7/6-1[8:1],,8b,,7/5,4,2,6,5/3,2,8,4,3/1,8,6,2,7/1,6,8,4,
{1}2<7[2:1]/5h[1:2],7-3[2:1],3<6[2:1],{8}6,4h[8:5],1b,,1b,,1b,,
7-4[16:1]/8-4[16:1],7/8,,3,2-5[8:1],1,8,7,1-4[16:1]/8-5[16:1],1/8,,6,7-4[8:1],8,1,2,
1-5[16:1]/2-5[16:1],1/2,,3,2-5[8:1],1,8,7,6,4h[8:5],1b,,1b,,1b,,
{4}2/7h[4:1],6h[4:1],3h[4:1],2h[4:1],{8}4h[8:5],,,7>2[4:1],,,,,
5h[8:3],8,7,6h[8:3],1,8,7h[4:1],,4h[8:3],1,2,3h[8:3],8,1,2h[4:1],,
5h[1:1],6,7,8,1,2,3,4,3h[1:1],2,1,8,7,6,5,4,{2}5<8[8:1]*>2[8:1],1-4[8:1]*-6[8:1],
{16}5,6,7,8b,4,3,2,1b,5,6,7,8b,{8}4,3/6,1bp4[8:1]/8b<5[8:1],,,,3,2,1,8h[4:3],,1-6[8:1],,,,7p2[4:1],8,,
1-5[8:1],,6,4h[4:1],,3h[8:1],5h[8:1],6<5[2:1],,,,,,1,1b/7b>2[8:1],6h[8:3],,,8,,5-8[8:1],4-1[8:1],,,
,3-6[8:1]/7-2[8:1],2/6,,,8,2<7[8:1]/8,,6,5,4,3,2h[4:3],4,5,7h[8:3],,,,,{16}8-4[8:1]/1-5[8:1],2/7,3/6,,{8},,
2b<7[8:1]/7b,,6h[4:1],,1-6[8:1],7-4[8:1],,,,2-7[8:1]/3-6[8:1],,,,1/8,1/8,,
5/6,4,2,3,4/5,3,1,2,3/4,5,7,6,4-1[8:1]/5-8[8:1],,,,7bp2[8:1]/6b>3[8:1],,,,
8V24[4:1],2-5[8:1],,,,1>4[8:1]/6<1[8:1],,1v6[8:1]/6,,,,,
1b-6[16:1]/2b-5[16:1],1/2,,3-8[16:1]/4-7[16:1],3b/4b,,1-4[16:11],5-8[16:17],,,,,,,,,
{1}1b,,,E
&inote_5=(178)
{1},
{4}
1-5[4:3],2,,7,
8-4[4:3],3,,6,
2-6[4:3],3,,7,
7-4[4:3],5,,3,
{8}
2,2,,1,3,5,4,2,
7,7,,8,6,4,5,7,
1,8,,2,3,4,5,6,
1-5[8:1],,7-3[8:1],,2-6[8:1],,,,
1h[4:3],,3,2,,5,7,,
6h[4:3],,7,5,,8,1,2,
5h[4:3],,4,3,,7,1,,
2h[4:3],,8,3,,6,4,5,
6h[4:3],,5,7,,8,5,,
7h[4:3],,5,6,,8,5,6,
3h[4:3],,1,7,,8,6,,
4h[4:3],,3,6,,3,5,,
3h[2:1],4,5,6,6h[2:1],5,4,3,
3h[2:1],2,1,8,5h[4:1],,1h[4:1],,
7h[2:1],6,5,4,4h[2:1],5,6,7,
7h[2:1],8,1,2,4h[4:1],,8h[4:1],,
2h[2:1],1,8,7,7h[2:1],8,1,2,
2h[2:1],1,8,7,5h[4:1],,4h[4:1],,
6h[2:1],5,4,3,3h[2:1],4,5,6,
6h[2:1],7,8,1,2,3,4,5,
{1}
2^7[2:1]/6h[4:3],
7-3[2:1]/2h[4:3],
3^6[2:1]/7h[4:3],
6-2[2:1]/3h[4:3],
{8}
2-5[16:1]/7-4[16:1],27,,3,6,4,5,4,
1-4[16:1]/8-5[16:1],18,,2,7,1,8,18,
2-5[16:1]/7-4[16:1],27,,3,6,4,5,4,
1-4[16:1]/8-5[16:1],18,,2,7,1,8,18,
{1}
2^7[2:1]/6^3[2:1],
7^2[2:1]/3^6[2:1],
{8}
1,8,,1-6[8:1],7-4[8:1],,,,
4,5,,1^4[8:1],5^8[8:1],,,,
{4}
12,23,34,45,
56,67,78,18,
{8}
8,7,6,5,4,3,2,1,
{16}
1,2,3,4,5,6,7,8,1,8,7,6,5,4,3b,,
{8}
2h[4:1],,1,,2-7[8:1],6-3[8:1],,,
,6,5,4^1[8:1]/1^6[8:1],,,,,
8,,6,7,5,3,4,2h[8:3],
,,5^8[8:1],,{16}1,2,3,4,{8}5b,,
7h[2:1],,,,1^6[8:1],6^3[8:1],,,
,4h[4:1],,5h[4:1],,6h[4:1],,,
7-2[8:1],3-6[8:1],,,8-5[8:1],4-1[8:1],,,
,,8,,{16}5,6,7,8b,4,3,2,1b,{8}
2h[4:1],,1,,5-2[8:1],4-7[8:1],,,
,1,8,7^2[8:1],,,,,
7h[2:1],,8,1,2h[8:3],3,4,4h[8:3],
,,5,,{16}4,5,4,5,{8}4b,6,
3h[4:1],,4,,8-4[8:1],2-6[8:1],,,
,4h[4:1],,3h[4:1],,2h[4:1],,,
2-7[8:1],6-3[8:1],,,1-4[8:1],5-8[8:5],,,
{1},
,,,,
E
&inote_6=(178)
{1},
{4}1^4[8:1],1-5[4:1],,8^3[8:1],
{4}8^5[8:1],8-4[4:1],,2^7[8:1],
{4}2^5[8:1],2-6[4:1],,7^2[8:1],
{4}7^4[8:1],7-3[4:1],,8^5[4:1],
{8}8,2,,4,3,2,1>4[4:1],8,
{8}1,7,,5,6,7,8-5[4:1],1-4[4:1],
{8}8,1,,6,7,8,1,2,
{16}3h[8:3],,2,1,8,7,6h[8:3],,7,8,1,2,3,,3b/6b,,
{8}7h[8:3]/2-6[4:1],,2,,,7,7^4[8:1],,
{8}2h[8:3]/7-3[4:1],,7,,,2,1^4[8:1],8,
{8}7h[8:3]/1-5[4:1],,1,,,7,8^5[8:1],,
{8}2h[8:3]/8-4[4:1],,8,,,1,8^3[8:1],7,
{8}6h[8:3]/8-4[4:1],,8,,,8,1^6[8:1],,
{8}3h[8:3]/1-5[4:1],,1,,,4,5^8[8:1],6,
{8}7h[8:3]/5-1[4:1],,5,,,5,4^1[8:1],,
{8}2h[8:3]/4-8[4:1],,4,,,1,1,,
{8}7,8,1^4[8:3],2^5[8:3],3^6[8:3]/1,,,,
{8}2,1,8-3[8:1],7,6/8-5[8:1],,28,,
{8}2,1,8^5[8:3],7^4[8:3],6^3[8:3]/8,,,,
{8}7,8,1-6[8:1],2,3/1-4[8:1],,71,,
{8}2-7[8:1],7-2[8:1],2,,6-3[8:1],3-6[8:1],6,,
{8}1-5[8:1],2,13,,7-2[8:1]/3-6[8:1],,37,,
{8}8^5[8:1],5^8[8:1],8,,4^1[8:1],1^4[8:1],4,,
{8}8,7,2-5[8:1]/6-1[8:1],1^6[8:1]/5^2[8:1],26,,,,
{1}2^7[2:1]/6h[4:3],
{1}7-3[2:1]/2h[4:3],
{1}3^6[2:1]/7h[4:3],
{8}6-2[2:1]/3h[4:1],6,6h,,1h,,3h,,
{8}14,8/5^2[4:1],,8,7,6,5,4-8[8:1]/1-5[8:1],
{8}14,4/1^6[4:1],,4,3,2,1,5-1[8:1]/8-4[8:1],
{8}58,5/8^3[4:1],,5,6,7,8,1,
{8}8-5[8:1]/4-1[8:1],84,8^3[8:1]/4^7[8:1],,8-4[8:1]/4-8[8:1],,84,,
{4}1-5[2:1]/2h[8:1],4h[8:1],6h[8:1],8h[8:1],
{4}8-4[2:1]/7h[8:1],5h[8:1],3h[8:1],1h[8:1],
{8}27,36,2-5[8:1]/7-4[8:1],5^2[8:1]/4^7[8:1],7-2[8:1]/2-7[8:1],,,,
{8}36,27,3-8[8:1]/6-1[8:1],8-3[8:1]/1-6[8:1],6^3[8:1]/3^6[8:1],,,,
{4}8h[8:1]/1h[8:1],7h[8:1]/8h[8:1],6h[8:1]/7h[8:1],5h[8:1]/6h[8:1],
{4}4h[8:1]/5h[8:1],3h[8:1]/4h[8:1],2h[8:1]/3h[8:1],1h[8:1]/2h[8:1],
{8}81,21,32,43,54,65,76,87,
{16}1,2,3,4,5,6,7,8,{32}1-5[8:1],8,7,6,5-1[8:1],4,3,2,{4}1b,
{8}7h[2:1],,8,,6-1[8:1],5-2[8:1],6,5,
{8},8-5[8:1],7,8-3[8:1]/6-2[8:1],,68,,,
{8}5h[4:1],,1-4[8:1],4-1[8:1],1-6[8:1],6-1[8:1],5,5h[8:5],
{8},,2,,3,3,{32}3-7[4:1],4,5,6,7,8,1,2,
{8}3h[2:1],,,,1-5[8:1],7-4[8:1],1,7^2[8:1],
{8},7^4[8:1],,7-3[8:1],,7h[8:3],,,
{8}1-5[8:1],6-3[8:1],1,6,2-7[8:1],7^2[8:1],2^5[8:1],5-1[8:1],
{8}6h[4:3],,,,8,8,{32}8-4[8:1],1,2,3,8,7,6,5,
{8}8b,,5h[4:1],,6-3[8:1],7-2[8:1],6,7,
{8},4-1[8:1],5,4^7[8:1]/6-2[8:1],,46,,,
{8}1h[4:1],,8^3[16:3],2^5[16:3],4^7[16:3],6^1[16:3],8^3[16:3],8h[8:5],
{8},,,,4,4,{32}4,3,2,1,4/8,37,26,15,
{8}4h[2:1]/8h[4:1],,,,1-5[8:1],5-1[8:1],1^4[8:1],6^1[8:1],
{8},6^3[8:1],,6-2[8:1],,6h[8:3],,,
1^4[8:1],5^8[8:1],1-6[8:1],5-2[8:1],1-4[8:1],5-8[8:5],1,5b,
{1},
,,,,
E
&inote_7=(178)
{1},
{8}8,7,8,,1,8,1,,2,1,2,,3,2,3,,
4,3,5,4,6,5,4,3,6,5,6,5,4,5,4,3,
2,4,5-8[8:1],,6,4,3,6,7,5,4-1[8:1],5,3,5,6,3,
2,4,5-1[8:1],7,4-8[8:1],3,5,6,{16}8,7,1,6,2,5,3,4,2,1,3,8,4h[4:1],,1b,,
{8}7h[1:1],5,3,2,,8,8,,1h[1:1],4,6,7,,5,5,,6h[1:1],8,2,4,,3,3,2,1h[1:1],7,5,4,6,,2,8,
7h[1:1],3,4,5,,1,1,,2h[1:1],8,6,4,,5,5,,7h[1:1],4,5,3,,1,8,1,2h[4:3],3,4,5,6,7,8,,
5/6,4,2,3,4/5,3,1,2,3/4,2,8,1,2/3-8[8:1],,1b,,2/4,5,7,3,4/6,7,1,5,6/8,1,3,7,2/8,3,1,5,
4/3,5,7,6,5/4,6,8,7,6/5,7,1,8,7/6-1[8:1],,8b,,7/5,4,2,6,5/3,2,8,4,3/1,8,6,2,7/1,6,8,4,
{1}2<7[2:1]/5h[1:2],7-3[2:1],3<6[2:1],{8}6,4h[8:5],1b,,1b,,1b,,
7-4[16:1]/8-4[16:1],7/8,,3,2-5[8:1],1,8,7,1-4[16:1]/8-5[16:1],1/8,,6,7-4[8:1],8,1,2,
1-5[16:1]/2-5[16:1],1/2,,3,2-5[8:1],1,8,7,6,4h[8:5],1b,,1b,,1b,,
{4}2/7h[4:1],6h[4:1],3h[4:1],2h[4:1],{8}4h[8:5],,,7>2[4:1],,,,,
5h[8:3],8,7,6h[8:3],1,8,7h[4:1],,4h[8:3],1,2,3h[8:3],8,1,2h[4:1],,
5h[1:1],6,7,8,1,2,3,4,3h[1:1],2,1,8,7,6,5,4,{2}5<8[8:1]*>2[8:1],1-4[8:1]*-6[8:1],
{16}5,6,7,8b,4,3,2,1b,5,6,7,8b,{8}4,3/6,1bp4[8:1]/8b<5[8:1],,,,3,2,1,8h[4:3],,1-6[8:1],,,,7p2[4:1],8,,
1-5[8:1],,6,4h[4:1],,3h[8:1],5h[8:1],6<5[2:1],,,,,,1,1b/7b>2[8:1],6h[8:3],,,8,,5-8[8:1],4-1[8:1],,,
,3-6[8:1]/7-2[8:1],2/6,,,8,2<7[8:1]/8,,6,5,4,3,2h[4:3],4,5,7h[8:3],,,,,{16}8-4[8:1]/1-5[8:1],2/7,3/6,,{8},,
2b<7[8:1]/7b,,6h[4:1],,1-6[8:1],7-4[8:1],,,,2-7[8:1]/3-6[8:1],,,,1/8,1/8,,
5/6,4,2,3,4/5,3,1,2,3/4,5,7,6,4-1[8:1]/5-8[8:1],,,,7bp2[8:1]/6b>3[8:1],,,,
8V24[4:1],2-5[8:1],,,,1>4[8:1]/6<1[8:1],,1v6[8:1]/6,,,,,
1b-6[16:1]/2b-5[16:1],1/2,,3-8[16:1]/4-7[16:1],3b/4b,,1-4[16:11],5-8[16:17],,,,,,,,,
{1}1b,,,E
