&title=雨·塔 ~Cactus's Resolve~
&artist=Daily天利
&first=0.01
&des=哈朗
&lv_5=14+
&des_5=哈朗
&inote_5=
(208){4}Ch[1:1],{24},,,,,,,,,,,,,,,,,,B8,
B7,B6,B5,B4,B3,B2,B1,E1,E8,E7,E6,{16}E5,E4,E3,E2,E1,E8,E7,E6,
{1}4xq6<7[2:3]*p2<1[2:3],
,8V24v1[2:3]*V64v7[2:3],
{4},,,,1h[1:2],
E7,E6,E5,
E4,E3,E2,E1,
8h[1:1],{8}1,1,,2,3,4,
{12}5bxh[1:1],E8,E7,E6,E5,E4,{16}E3,,,E2,,,{8}E1,
8x,8,4,4h[4:1],,6,,6/4,
3,5/3,,6,{4}6/3,{8}5,4,
6,6,3-1[8:1],3,5,5,6,7,
8<5[4:1],1,2,3,{2}4h[2:1],
{8}5,5,5,5,4/5,4,4,4,
6/4,6,6,6,{16}4,5,4,5,{8}4,3/6,
{16}7x,8,1,2,3,4,5,6,2x/7,3,4,5,6-4-7-3-8-2[4:3],7,8,1,
{1}2x/6bx,
{4}1x/5x,8bx/4bx,{8}3,3/7,{4}7h[8:1]/3>8[16:3],
{2}7<4[16:3],{4}1-4b[8:1]*-6b[8:1],1,
5-7-1-3[8:5],8>3[8:3],{16}A8,D1,A1,D2,A2,D3,{8}A3,
{2}4bxh[4:3],{8}3xV52[4:1],3,,,{4}6<1[4:1],
{16}6,,,5h[4:1],{32},,,,,,8,D5,A4,D4,A3,D3,A2,D2,A1,D1,
{4}8<5[4:1],{16}8,,,1xh[4:1],,,,6bx,,,,,{4}4/5h[4:1],
{8}4,{16}5,4,{4}6/3h[4:1],{8}8<2[8:3],{16}2,1,
{2}8,{4}7b,{16}4,5,4,5,
{4}4-8[16:3],{8}5,5,5h[16:1],5h[16:1],4h[16:1]/6h[16:1],4h[16:1]/6h[16:1],
{4}4>2[8:1]/6<8[8:1],4v1b[16:3]/6v1b[16:3],,2bx/8bx,
{16}8/2,3/7,4z8b[4:1]/6s2b[4:1],5,,,,,,,,,{8}7/3,8/2,
{24}1,2,3,1/4p1b[2:1],8,7,{4}6q1[8:3],{16},,,,,,,,,,,,,,,,7/8h[8:1],
,,3/2h[8:1],,,{8}5/6h[8:1],
{16}1b,2,3,4,,,{8}8x,{16}8b,7,6,5,8b,7,6,5,
{8}4x,{16}7,8,{8}7,3,{16}7,8,{8}7,2,7/2,
{16}2,5,3,6,4,7,3,6,{8}4h[4:1],5bh[8:1],{24},,,,,,{6}7h[6:1],
{12}5,6h[6:1],,4,{6}5h[6:1],{12}3,4h[6:1],,2,
3,2,4,3,5,4,6,5,7,6,7,6,
{6}7h[6:1],{12}5,6h[6:1],,4,{6}5h[6:1],{12}3,4h[6:1],,2,
3,2,4,3,5,4,6,5,7,6x,,6x/5x,
6xh[4:1]/5xh[6:1],,,,,3h[4:1],4h[4:1],,,,,6h[4:1],
5h[4:1],,,,,4h[4:1],5h[4:1],,,,,3,
5/3,6,7,1,2,3,6,7,8,2,3,4,
{8}5x/7b,5x/7b,{16}5,4,3,2,1b/7b,,,5b/6b,,,{8}3b/4b,
2/5<8[16:3],2,{4}5/1>4[16:3],{2}1-6[8:1]*-5[8:1],
{8}4/7,6/5,{16}4,3,8,7,{8}6b/2b,6/2,{16}3h,5h,4h,6h,
{8}3v8[8:1],7-4-6[4:1],3,7,1,{16}1,2,{8}3,7/4,
8/4>1[16:3],8,{16}4/8,7,6,5,8b/4b,,,2b/5b,,,{8}1b/7b,
8/2,{16}6,5,7,5,{8}6,5/4,3/4,{16}4/5,6,{8}7,
8/3,{16}2,1,{8}2>5[16:3],3/8,2/1<6[16:3],8,1,5,
{16}4h,4h,4h,4h,{8}4h,{16}5,4,5h,5h,5h,5h,{8}5h,4,
{16}3b/5b,,,4b/7b,,,{8}2b/8b,{2}7bv4[8:1]/1bv4[8:1],
{1}8h[1:2],
{16},,,,,,,,,,,,,,,,1,
8,1,8,1,8,1,8,{8}1xh[4:3],8xh[8:5],,,,,,,{4}E8/E2,
{8}7,7,
{2}8/1h[2:1],{4}E8,{8}8,1,
{2}2h[8:3],{4}B5,{8}5h[8:1],4h[8:1],
{2}6<2p5[4:3],B4,
{4}4h[8:1],4h[8:1],{8}3/5,3,5,5,
{4}4/3,4/3,5x/2,{8}6,4,
5,3,{4}4,2x,{8}1,1,
8h[4:1]/2h[4:1],,,2h[4:1]/8h[4:1],,,{4}7/3pp2[8:5],
8h[8:1],8h[8:1],{8}8x,{16}8x,7x,{8}6x,6x,
{4}5/3,3/5,4x<7[16:3],4pp1[8:5],
{2}4,8x,
{1}8h[1:1]/1h[1:1],
{16},,,,,,,,,,,,1>4[8:1],8,1,8,
1b,{32},,,,1b,8,7,6,,,1b,B1,C,B5,{4}A5f,{16}8<5[8:1],1,8,1,
8b,{32},,,,8b,1,2,3,,,8b,B8,C,B4,{2}A4f,
{24}8/1bh[4:1],7,6,5,,,,,,7/8bh[4:1],6,5,{4}4,{24}6/7bh[8:5],5,4,3,,,,,,,,,,,,{8}5,
{16}5x,6,7,8,{4}1<6[8:1],
{8}1>4[8:1],4x,1-7<6[8:1],6x,1-3<4[8:1],4x,1,6x,
{4}5-7[8:1]*-1[8:1],5,{8}8/2,3/7,{4}6h[8:1]/4h[8:1],
{8}3/5,7,6/4,2,1/8,7/3,5/4,6/2,
{4}B2/B6/Cf,,,8h[8:1],
{32}8x,7,6,5,8x<2[16:3],7<2[32:5],6>2[8:1],5>2[32:3],,,,,A8,A7,A6,A5,A4,A3,{16}A2,,,{4}1h[8:1],
{32}1x,2,3,4,1x>7[16:3],2>7[32:5],3<7[8:1],4<7[32:3],,,,,A1,A2,A3,A4,A5,A6,{16}A7,,,1,8,1,8h[16:5],
{24}1b,2,3,4,,,,,,2/1h[4:1],3,4,{4}5b,{24}3b/2h[8:5],4,5,6h[2:1],{4},,{16},{48},{16}6bx/2bx,
1/5,8/4,7/3,2qq5[2:3]/6qq1[2:3],5/1,4/8,3/7,
{1}6b/2b,
{8},,,,,,,,8h[8:3],
4,4,4,4,4,3h[8:3],7,
7,7,7,7,6h[4:1],4,4,4,
6b/3b,5,5,6b/3b,4,4,5b/4b,5/4,
7/5,8/1,2/4,5/4,{32}3,2,1,8,7,6,5,4,A3,A2,A1,A8,A7,A6,A5,A4,
{1}Cf,
{4},,,,4,
4h[4:1],,,{2}5<4[2:1],
1b,
{24}8,1,2,3/4,5,6,{4}7h[4:1],8bx,{16}7,8,7,8,
7,8,7,8,7,8,7,8,{24}A7,E7,{12}E6,{48},,,,{16}E4,E3,E2,E1,
{24}5,6,7,8/1,2,3,{4}4h[4:1],5bx,{16}7,7,3,3,
6,6,4,4,6,5,7,5,{2}6b<8-4b[16:3],
{32}1b,2,{16}3h[16:7],{32},,,,,,,,,,,,7b,6,{16}5h[16:7],{32},,,,,,,,,,,,4b,
3,{16}2h[16:7],{32},,,,,,,,,,,,6b,7,{16}8h[16:7],,,,,,,6,
7,8,1,4/2,5,6,7,{4}4b-1>3[4:1]/8b-5<7[4:1],4/8,
{12},,8/4,8xh[4:1]/4xh[4:1],{96},,,,,,,,,,,,,,,,,,,{32}A1,D2,A2,D3,A3,D4,A4,D5,A5,D6,A6,D7,A7,D8,A8,
1x,2,{16}3,{32}8x,7,{16}6,{32}2x,3,{16}4,{32}7x,6,{16}5,{4}1b,{16}8,7,8,7,
8,7,8,7,8V61>5[2:1],7,8,7,,,,,A1,A2,A3,A4,
8b,1,2,3,4/1-5[8:1],2,3,4,{4}5/1,{32}B2,E3,,,B7,E7,,,B3,
E4,,,B6,E6,{96},,,,,,{12}4z8[4:1],5,4,{2}5,
{32}8h[4:1]/1-5[8:1],2,{16}3,{32},,,,,,,,,,,,1h[4:1]/8-4[8:1],7,{16}6,{32},,,,,,,,,,,,1h[4:1]/2-5[8:1],
3,{16}4,{32},,,,,,,,,,,,8h[4:1]/7-4[8:1],6,{16}5,,,,,,,{4}3h[4:1],
5,{8}5/3,{16}4,5,4,6,{32},6,,,{16}4,
6,3,7,2,8,1,8,1b>5b[4:1],8,7,6,{4}5,
,,,,,,,,{1}Ch[4:7],
6bxh[4:3],
{12}6,5,7,3,4,2,6,4,8,3,5,1,
{8}6x,6x,5/3,5,3x,3x,4/6,4,
{16}6b,7,8/4,1,5b,4,3/7,2,8b,7,6/2,5,3,4,3,4,
{8}2/5,{16}6,5,{8}7/4,{16}3,4,{8}2/5,6/1,{4}7b/8bv2[16:3],
4h[16:3]/8v6[16:3],8/4h[16:3],{8}1/5,2/6,2/6,3/7,
{4}8/4-1[8:1],4/7-4[8:1],2-5[8:1],{8}2,{16}6x,7x,
{8}4>1[8:1]/8x<5[8:1],7/3,{4}4/8,{16}4/3,,,3/4,{8}5-1[8:1]/2-5[8:1],6/1,
{4}5b/2b,8b/4b,{8}1b/2b,{16}8x/3x,8x/3x,,4x/7x,{8}7x/4x,
6bx/5bx,4/3,6/4-1[8:1],3/5-8[8:1],,A5f,,,3x/7bxh[8:1],
5,6x/2bxh[8:1],4,5x/3x,5x/3x,{16}3x,2x,{32}4x/1x,5x,6x,7x,
{8}8bxh,2,2,2,{16}8b/1b,,,7/2,,,{8}6/3,
{4}4/5,6h[16:3]/3h[16:3],{16}6/4,,,5/2,,,{8}7/1,
8bx/2bx,8x/2x,{4}2x-6[8:1]/8x-4[8:1],{2}8bv5b[8:1]/2bv5b[8:1],
{8}6bx/4bx,5/3,4/2,{16}4/2,3/5,{8}4q1[8:1]/6<1[8:1],6/4,,,8/2-5[8:1],
7,{4}2/6-1[8:1],6/4h[8:1],8-5[8:1]/4v1[8:1],
8b/4b,6b/2b,{12}4/6,3,2,1/7,6,5,
{16}1bx/4bx,5/2,6/3,7/4,{8}8/5,{16}5bx/8bx,4/7,6/3-7[8:1],2/5,{8}4/1-5[8:1],{16},,,,8,
4,7,3,6,3,6,3,7,4,6,2,5,3,{8}6h[8:1],
{12}4,{24}6,4,{48},{16}6,{24}3,5,3,5,3,5,{16}3b,6,2,7,{8}1,1/8,
{16}2bx,8x,3x,7,4bx,8x,2x,6,3,5,1,7,{32}2b,1,8,7,6/1b,5/8,4/7,3/6,
{1}5bh[2:3]/2bh[2:3],
{8},,,,,,,,1,
2,3,4,5,6,7,8b,
E
