&title=Amnéhilesie
&artist=MisomyL
&first=0.047
&des=Atérla
&lv_5=14.7
&des_5=Atérla
&inote_5=
(230){4},{1},,,{4},,{8}7,
6,
5,4,3,2,8,6,4,2,
7,6,5,4,3,2,8,6,
4,2,2,3,4,5,6,7,
1,3,5,7,2,3,4,5,
6,7,1,3,5,7,8,8,
7,7,6,6,5,4,5,3,
8,8,7,7,6,6,5,4,
5,3,1,1,2,2,3,3,
4,5,4,6,1,1,2,2,
3,3,4,4,{4}5h[8:1],1/8h[8:1],
7/8h[8:1],1/8h[8:1],7/8h[8:1],4h[8:1]/5h[8:1],
8/2h[8:1],8/6h[8:1],8/2h[8:1],8/6h[8:1],
4h[8:1]/5h[8:1],8/1h[8:1],2/1h[8:1],8/1h[8:1],
2/1h[8:1],5h[8:1]/4h[8:1],1/7h[8:1],1/3h[8:1],
1/7h[8:1],1/3h[8:1],4h[8:1]/5h[8:1],{8}6,5,
6,4,6,3,6,2,1,1,
7,6,7,5,7,4,7,3,
1,1,8,7,8,6,8,5,
8,4,1,1,8,6-2[8:1],6,3,
4-8[8:1],4,{16},,1x,2,3,4,5,6,7pp5[4:9],8,1,2,
,,,,,,{8}B3,,,{4}E2,
E1,E8,{2}Ch[4:3],
{4},,,E7,
{8}B4,,,B5,,B3,{4}B2,
B8,B6,E5,{8}E2,A2,
,E8,{4}A7,{8},,,,6,
,,5,,4,{4}7,
5,4,{2}2h[4:3],
{4},,,4,
{8}5,,,6,,7,{4}2h[4:1],
4h[4:1],5h[4:1],{2}7h[4:1],
{8}5,5,4,3,2,1,8,7,
6h[4:1],{16}3,4,{8}5,6h[4:1],{16}2,3,{8}4,{4}6<1[4:1],
1>4[4:1],4<7[4:1],{2}7>1s5[4:3],
{8}2,2,3,3,4,4,{4}3/6-1[8:1],
{8}6,2-5[8:1],,2-8-4[8:3],,7,{4}7,
6,5,4h[4:3],{8}3,3,
,5,{4}5,B6/B3,B1/B8,
{32}7b/8h[8:1],6,{16}5,{32},,,,,,,,7b/1h[8:1],6,{16}5,{32},,,,,,,,2b/1h[8:1],3,{16}4,{32},,,,,,,,2b/8h[8:1],
3,{16}4,{32},,,,,,,,8,7/1,6/2,5/3,,,,,{8}B5,B3,
E7,E2,B8,E3,B6,B4,{4}5/C,
1-3[8:1],{8}7,7-5[8:1],,8,{4}8-4[8:1],
8-6[8:1]*-2[8:1],8,{8}3/5,3/5,4/6,6/4,
7/5,7/5,{4}8-6[8:1]*-5[8:1],8-2[8:1]*-3[8:1],8,
{16}6b,5,{8}6,{16},,3b,4,{4}2,{16}6b,4,{8}6,
{16},,3b,4,{4}1,{16}7b,5,{8}6,{16},,3b,4,
{4}3,{16}7b,5,{8}7,{16}6b,4,{8}6,{4}5b<8[4:1],
{8}1,1,2,2,3,3,5,5,
4,4,7,7,{16}5,4,6,3,5,4,6,3,
5,4,6,3,{4}5x-1[8:1],{2}1x-6[8:1],
{16}3b,4,{8}3,{16},,6b,5,{4}7,{16}3b,5,{8}3,
{16},,6b,5,{4}8,2bh[4:1],4bh[4:1],
5bh[4:1],{8}7b,7,2,2,4,4,
{16}A1,E1,E8,A7,A2,B2,C,B6,A3,E4,E5,A5,{4}6xpp5[2:1],
{8}1,1,2,2,3,{16}3,6x,{8}4,4,
5,5,4/6,6/4,2/5,2/5,{16}7,4,7,4,
{8}6bx/5bx,5bx-8b[8:1]/6bx-8b[8:1],,,,1,2/5,4,
3,5/2,4b/3b,4b-1b[8:1]/3b-1b[8:1],,,,8,
7,6,5,4,3b/2b,3b-6b[8:1]/2b-7b[8:1],,,,8,
5,1,4,2,3,5,
4,6,5,7,5,6,4,5,
{16}4,6,5,4,{4}6bv3[4:7]/3bv6[4:7],,,,,,,,,8b-6[8:1],
2b-4[8:1],
1b-5[8:1],3h[8:1],4/3h[8:1],5/3h[8:1],
6h[8:1],5/6h[8:1],4/6h[8:1],3/6h[8:1],
{8}5,5,4,4,8,8,{16}1,6,{8}1,
{16}8,3,{8}8,{4}7xp2[0.7826##1.3044]/2xp7[0.7826##1.3044],,,,,,,,,B6,
B3,
{8}B1,B8,{4}7,7,3,
6,8,{8}8,1,{4}2,
2,B4,B5,E7,
{8}B8,B1,{4}2,2,4,
5,7,{8}E2,B3,{4}4h[4:1],
,5,{2}5,
{8}B3,B6,{4}8,8,E3,
7,7,{8}E2,B1,{4}6h[4:1],
,5,5,{8}B3,B5,
B1,B7,{4}6/C,7,8/1,
2,3,4,5h[4:1]/B7,
{8},,8,1,7,2,{16}6,3,6,3,
6,3,6,3,{8}5bx/4bx,5b/4b,,8h[4:1],{16},,,,1,
8,1,8,2,7,2,7,3,6,3,6,{8}4bx/5bx,5b/4b,
,1h[4:1],{16},,,,8,1,8,1,7,2,7,2,
6,3,6,3,{8}5bx/4bx,4b/5b,,8h[4:1],{16},,,,1,
7,1,7,2,8,2,8,6,1,6,1,{8}3bx/7bx,7b/3b,
,,{4}6b,{8}3b/5,3/5,{16}4b,6,4,6,
5,7,5,7,{12}A1,A2,A3,A5,A6,A7,E2,E3,E4,
E6,E7,E8,B2,B3,B4,B6,B7,B8,{48}A8,,,E1,,,{16}E2,A2,
A7,B7,C,B3,A6,E6,E5,A4,{8}3h,3h,3h,3h,
3h,3h,6/4b,6/4b,,8b/6,{4}6/8b-2[8:1],
6/8b-3[8:1],6/8b-4[8:1],8b/6,{8}3/5b,3/5b,
,1b/3,{4}3/1b-7[8:1],3/1b-6[8:1],3/1b-5[8:1],
1b/3,{8}2b/7b,2b/7b,,8b/1b,{4}8b-6[8:1]/1b-3[8:1],
8b-4[8:1]/1b-5[8:1],8b<5[8:1]/1b>4[8:1],8b/1b,Ch[4:3],
{8},,,,8,8,7,7,
6-1[8:1],6,{4}4-8[8:1],{2}2-6[8:1]*-4[8:1],
{8}1,1,2,2,3-8[8:1],3,{4}5-1[8:1],
{2}7-3[8:1]*-4[8:1],{8}8,8,7,7,
6-1[8:1],6,{4}4-8[8:1],{2}2-6-4[16:3],
{8}3,2/5,6,7/3,2,1/7,6,5,
{16}4,3,6,5,4,3,6,5,4,3,6,5,4,3,6,5,
4,3,6,5,{4}4h[4:1],{8}1,1,2/5h[8:1],2,
{4}3/6h[8:1],{8}8,7,8q4[16:3],6,{4}8,
{8}1,1,2V85[4:1],2,{2}5w1[16:3],
{8}7,6/3,{4}5h[4:3],E5/A4,B3/A3,
2h[4:3],E5/A5,B6/A6,7,
8/1,{8}1/8,7,1/8,2,1/8,7,
{4}8/1-5[8:1],{32}8/1-4[8:1],7,{16}6,{32},,,,7/1-3[8:1],6,{16}5,{32},,,,1/8,7,{16}6,,,{8}8/1,
7,8/1,2,{4}1/8-4[8:1],{32}1/8-5[8:1],2,{16}3,{32},,,,2/8-6[8:1],
3,{16}4,{32},,,,1/8,2,{16}3,,,{8}8/1,2,3/6,7,
3/8,2,1b/6b,1b/6b,,7-4[8:1],8-3[8:1],7,
8,,,2-5[8:1],1-6[8:1],2,{4}1b-4[8:1]*-3[8:1],
1b-7[8:1]*-6[8:1],1bw5[8:1],{8}Cf,,,1,
2,3,{16}4,5,4,5,4,5,4,5,3,6,3,6,
2,7,2,7,1,8,1,8,{8}3/6,3/6,{12}1h,7,3,
5,1,7,8h,2,6,4,8,2,1h,1,7,
5,5,3,4/6h[16:1],{24},{8}4/6h[16:1],4/6h[16:1],3/5h[16:1],3/5h[16:1],3/5h[16:1],
7/2h[16:1],7/2h[16:1],7/2h[16:1],1/8h[16:1],1/8h[16:1],1/8h[16:1],{16}2,3,4,5,
6,7,1,2,3,4,5,6,{4}7/1v6[8:1],8v3[8:1],
2-6[8:1],{8}5,5-8[8:1],,4,{4}4-1[8:1],
{8}3,3,2,2,7-3[8:1],7,4,4-1[8:1],
,5,{4}5-8[8:1],{8}6,6,7,7,
2-7b[8:1],2,5b/2,5b-1b[8:1],,4b/5,{4}4b-8b[8:1],
{8}3/4,3,2,2,7-2b[8:1],7,4b/7,4b-8b[8:1],
,5b/4,{4}5b-1b[8:1],{8}6/5,6,7,7,
{4}3>8[16:3],3,{16}7,6,5,4,8,7,6,5,
{8}3x/4x,2x,3x/4x,5x,{16}4,3,4,3,4h,5,6,7,
3h,4,5,6,2h,3,4,5,{8}1xh/2xh,3xh,1xh/2xh,8xh,
{16}1,2,1,2,8bx,4,8,4,8,4,8,3,8,3,8,3,
7bx,2,7,2,7,2,7,1,7,1,7,1,8bx,7,6,5,
4,3,2,1,8x,7,6,5,{32}1b,2,3,4,5,6,7,8,1b,2,3,4,5,6,7,8,
1bx-5[8:1]/5bx-1[8:1],2/6,3/7,8/4,{8}5bq7[8:21]/1bq3[8:21],{4}Cf/B5/B1,{1},,{4},,,{8}D8,
A7,D7,A6,D6,A5,
A4,D4,A3,D3,A2,D2,B7,B3,
B5,B1,B6,B4,B8,B2,E7,E3,
E1,E5,
E
