&title=To the Milky Way
&artist=黒魔
&first=0.07
&des=Project-53
&lv_5=14
&des_5=Project-53
&inote_5=
(186){4},{8},,,,,,E3,
C,E7,E5,,E1,,Ch[4:1],
{16},,,,E6,E5,{8}E4,{4}E1,{8}E3,E5,
E4,E6,E5,E7,,E3,,Ch[8:7],
,,,,,,{4}E1,
{8}E7,C,E3,E5,,E1,,Ch[4:1],
{16},,,,E4,E5,{8}E6,E1,E8,E7,E6,
,E2,E3,E4,,E6,E4,Cfh[8:7],
{16},,E4,E5,{4}E6,,E1,
{8}1/7,2,3,4/6-2[8:1],,3,,3>7[8:3],
,7,6,5,{4}4,{8}1,1,
6,6,2,7-3[8:1],,1<1[8:7],,,,,,,,,,,8/2,
7,6,5/3-7[8:1],,6,,6<2[8:3],
,2,3,4,5V36[4:1],5,,,,7-2[8:1],
6,7,,3-8[8:1],4,5xs1[8:3],
,,,,,,{4}1x,
{8}8b/2b,3h[2:3]/7h[2:3],,,,,,,,,,,,,,6h[4:1]/2h[4:1],
,,{4}2h[8:5]/6h[8:5],{16},,,,,,,,,,2,
6,2,6,3,7,3,7,4,8,{4}4>1[8:1],
{8}8,7<4[8:1],,4,3,2<7[8:1],,6>3[8:1],
,1,{4}1pp4[8:3],{8}8,7,6,5<8[8:1],
,1,{4}2>5[8:1],{8}5,6,7,8<1[8:7],
,E5,{4}Cf,,,8bx,
{8}E2,B2,B7,B6,B3,E4,
{4}E5,E7,E1,E3,
C,{8}E4,E6,,C,E1,1x>8[8:5]/8x<1[8:5],
{16},,,,,,,,,,,,,,,,2,
6,2,6,{8}1,{16}7,3,7,3,{8}8,{16}3,5,3,5,
{8}1,{16}6,4,6p4[4:1],4,{8}8,{24},,,,,,{12}1x,,2/5x,
{24},,,{8}3/6,{4}4b/5b,{6}8,7/4,{24},{8}3V57[4:1]/6V42[4:1],
5b/4b,{16},,,,,,,,1,8,{8}1-5[8:1],1x,
8-4[8:1],7,1<3[4:1],2,{4}1,{8}8-4[8:1],8,
3-6[8:1],3,7-2[8:1],7,4>1[8:1],4,8<5[8:1],8,
2-6[8:1],2,7-3[8:1],7,4-8[8:1],4,6qq3[2:1],6,
{16},,,,,,,,,,2,1,{8}2,8/3,
{16}3-7[8:1],,,6,{8}3,6,5-2[8:1],5,1-6[8:1],1,
{4}6x>3[4:1],3>8[4:1],8-4[8:1],4,
{16}6,5,6,5,{4}8,{16}3,4,3,4,{4}1,
{16}4/2,,,7/5,,,{8}8/1,{16},,8,1,{8}8-4[8:1],8,
1-5[8:1],2,8>6[4:1],7,{4}8,{8}1-5[8:1],1,
6-3[8:1],6,2-7[8:1],2,5<8[8:1],5,1>4[8:1],1,
7-3[8:1],7,2-6[8:1],2,5-1[8:1],5,3pp6[2:1],3,
{16},,,,,,,,,,7,8,{8}7,1/6,
{16}1>3[8:1],,,8,{8}1,8,{16}1q5[8:1],,,8,{8}1,8,
{16}1v6[8:1],,,8,{8}1,8,7,{16}5,6,{8}5<4[4:5],5,
{4}5x,8x,6x,5,
6,7,{8}8,{16}2,1,{8}2<5[8:5],8/3,
{4}7xh[8:3],,,8x>4[8:5],
2xh[8:3],,,1x,
{8}1/2,1/2,3/4,3/4,5/6,5/6,8/7,8/7,
{16}8,7,8,7,4,5,4,5,2-6[8:1],1,2,1,{4}2b,
{8}8,1/7,{16}6,5,{8}7,1,8/2,{16}3,4,{8}2-6-2[16:5],
,2/6,{16},8w4[16:1],,,,,,,{4}1b/7b,
{8}1,8/2,{16}3,4,{8}2,8,1/7,{16}6,5,{8}7-3-7[16:5],
,7/3,{16},1w5[16:1],,,,,,,,,,,{1}Cf/B7/B6/E7/B2/B3/E3,
,4h[1:1],
{2}6h[1:1],{4}5,4,
3h[1:1],4,5,6,
7h[1:1],5,4,3,
2h[2:1],1,7h[4:1],{8}8,1,
2x/7x,1/8,,8pp2[8:1]/1qq7[8:1],{2}7/2,
{8}1b>3[8:1],7,6<1[8:1],5,4,3<6[8:1],2,1,
8>3[8:1],7,6,5,6,7/4,3,2/5,
1b<7[8:1],3,4>1[8:1],5,6,7<4[8:1],8,1,
2<7[8:1],3,4,5,6/3,4/5,{4}2b/7b,
{8}1/5,3h[8:13]/7h[8:13],{1},{4},,,{12}3/7,
4,5x,6/2,5,4x,3/8x,4,5x,6/1x>7[2:1],5,4x,
{4}3/1x,,,8/1,
8/2,1/7,{16}8/3,,,2/7,,,{8}1/6,
{16}1/6,,,2-5[16:3]/7-4[16:3],,,{8}8/3,,,{4}C/E3/B3/E7/B7,
{8}1b/8b,1b/8b,{4}1b/8b,{16}1,8,2,7,1,8,,,1b,
8,1,8,2,7,2,7,3,6,3,6,4,5,4,5,
3,4,3,4,2,5,2,5,1,6,1,6,8,7,8,7,
5,6,5,6,4,7,4,7,3,8,3,8,2,1,2,1,
4bx,5,4,5,3,6,3,6,2,7,2,7,1,8,1,8,
2,6,2,6,3,7,3,7,4,8,4,8,3,7,3,7,
2,6,2,6,1,5,1,5,8,4,8,4,1,5,1,5,
2x/4x,,,5x/7x,,,{8}3x/1x,{16},8x/6x,,,{8}1,1,
{16}2bx,6,2,6,3,5,3,5,4,6,4,6,2,5,2,5,
3,4,2,5,3,4,2,5,3,6,3,6,4,7,4,7,
2,8,2,8,4,6,4,6,3,5,3,5,4,6,4,6,
5,6,4,7,5,6,4,7,3,6,3,6,1,7,1,7,
{8}2x/6x,4x/5x,{16}6,5,{8}7,8/3,6/5,{16}3,4,{8}2,
1/6,3/4,{16}6,5,6,3,4,3,6,5,7,3,4,2,
{1}8bz4[2:3],
,C,
,{4},,{8},{16}B2,
B3,{8}B4,C,
E1,{16}B7,B6,{8}E4,E3,{4}E2,{8}E1,{16}B2,B3,
{8}E6,E7,E8,C,{16}E6,B5,{8}B4,{16}E2,B1,{8}B8,
B6,B5,B4,B3,B2,B1,B8,B7,
Ch[2:1],{16},,,,,,,,5x,4x,{4}6bx/3bx,
{16}4,5,4,5,4,5,4,5,4,5,4,5,4,5,4,5,
4,5,4,5,4,5,4,5,4,5,4,5,4,5,4,5,
3,5,3,5,4,6,4,6,3,7,3,7,2,8,2,8,
1,1,1,1,1,1,1-5-7[16:3]*-4-8[16:3],1,{2}1,
{16}7bx/8x-4[8:1],,,1,{8}8,2-6[8:1],1,2/7-3[8:1],8,7/4,
{4}5>1[4:1],1<5[4:1],5>1[16:3],1,
{16}8-4b[8:1],7,6,5,{4}8,{16}1>6b[16:3],8,7,6,{4}1,
{16}8b,,,4b/2b,,,{8}7b/5b,{16},,1,8,{8}1-5[8:1],1,
1/8-4[8:1],7,8/1<4b[4:1],2,{16}3,2,{8}1,8-3[8:1],7,
6-1[8:1],5,4-7[8:1],3,2-5[8:1],1-6[8:1],2,1,
4q8[8:1],3,2p6[8:1],3,4-8[8:1],3,5-2-7-4-1b[2:1],6x,
{16},,,,,,,,,,2,1,{8}2,2,
{16}2<7[8:1],,,7,{8}2b,6,{16}6<2[8:1],,,2,{8}6b,3,
{16}4>7[8:1],,,7,{8}4b,6,5-1[8:1],{16}1,2,{8}3>8[4:1],4,
{4}8<5[4:1],5>2[4:1],2<7[4:1],7<4[4:1],
4>1[4:1],8,{8}4,{16}4,3,2,1,8,7,
{1}2bp8[2:1]/6p4[2:1],
1q6[2:1]/5q2[2:1],
{8}1/5,1/5,8/4,8/4,3/7,3/7,2/6,2/6,
{16}1,7,1,7,3,5,3,5,2-6[8:1],8,2,8,{4}2b,
{8}8,1/7,{16}6,5,{8}7,1,8/2,{16}3,4,{8}2-6-2[16:5],
,2/6,{16},8w4[16:1],,,,,,,{4}1b/7b,
{8}1,8/2,{16}3,4,{8}2,8,1/7,{16}6,5,{8}7-3-7[16:5],
,7/3,{16},1w5[16:1],,,,,,,3,2,1,8,
7/5,6,7,8,1/4,3,2,1,8/6,7,8,1,{32},,,,,,,,1<2[4:13]/8>8[4:15],
7/2,6x/3x,5x/4x,{1},,,{4},,,{16},,{1}1b,
E
