&title=Ordirehv
&artist=Feryquitous
&first=-0.03
&des=Sean
&des_5=Sean
&lv_5=13+
&inote_5=(191){4},6h[4:1],{8}
,5h[4:1],,,{1}4xq5[4:3],
{4},3h[4:1],{8},4h[4:1],,,{1}5xp4[4:3],
{4},7h[4:1],{8},6h[4:1],,,{1}5xpp4[4:3],
{4},2h[4:1],{8},3h[4:1],,,{1}4xpp2[4:3],
{4},4h[4:1],{8}6,4h[4:1],,5p4[8:7],
{1}4x,
{4},3h[4:1],{8}4,3h[4:1],,4,
{1}3xq4[4:3],
{4},5h[4:1],{8}3,5h[4:1],,4q5[8:7],
{1}5x,
{4},7qq8[4:3],,,,3q5[4:3],
,,,6h[2:1],
{8}5,4,3,4,
{1}5qq6[4:3],
{4}2h[8:1],3h[2:1],{8}4,5,6,5,
{1}4pp3[4:3],
{4}6h[8:1],7h[2:1],{8}6,5,4,5,
{1}6qq7[4:3],
{4}3h[8:1],2h[2:1],{8}3,4,5,4,
{1}3pp2[4:3],
{4}6,8h[8:3],{8}7,7h[8:3],,6,
{4}6h[8:3],{8}5,5h[4:1],,,3,4,
5,6,{4}7h[4:1],{8}6,6h[4:1],,5,
{4}5h[4:1],{8}4,4h[4:1],,5,6,5,
4,3,{4}2h[8:3],{8}3,4h[8:3],,5,
{4}6h[4:1],{8}7,8h[4:1],,4,4,3,
4,5,{4}6h[8:3],{8}5,4h[4:1],,,{1}4xqq2qq8-6[4:3],
{4},5h[4:1]/4h[4:1],{16},,,,3,5,3,5,
{4}4-6[8:1],Cf,{8}8,8<5[8:1],,4,
{4}4>1[8:1],{8}7,7<4[8:1],,3,2,1,
8,7,{4}6<1[8:1],{8}2,2>5[8:1],,7,
{4}7>2[8:1],{8}3,3<6[8:1],,8,{4}8-5b[8:1],
8,3>8[8:1],{8}7,7<4[8:1],,2,
{4}2<7[8:1],{8}6,6>3[8:1],,1<6[8:1],,5,
{4}5h[4:1],{8}3,4,5,6,5,4,
{4}3xqq4[4:3],{8}5,5,,6,,7,
{4}8bpp2[4:1],2<6[2:1],{8}4,4,,3,
{4}3,{8}2-4[8:1],5,2,5,6<1[8:1],4,
{4}6/2pp4[4:1],4>8[2:1],{8}6,6,,5,
{4}5,{8}6-4[8:1],8,6,2,1>4[8:1],6,
{4}1/7qq5[4:1],5<1[2:1],{8}3,3,,2,
{4}2,{8}4-8[8:1],7,4,5,6-1[8:1],2,
{4}6/4>8[4:1],8<4[4:1],4>8[4:1],8V24b[4:1],
6,{8}7,7-4[8:1],,5h[2:1],,Cfh[8:3],
,,,,,,{4}6h[2:1],
,5h[2:1],,4h[2:1],
,3h[2:3],,,,,,5h[4:1],
4h[4:1],6h[4:3],,,7h[4:3],
,,5,
,3h[2:1]/4<8[8:3],,,,7h[2:1]/5pp2[4:3],
,,,,,4h[2:1],
,5h[2:1],,6h[2:1],
,7h[1:1],,,,5h[2:1],
,6h[4:1],
4h[4:1],3qq8[4:5],,,{1}5h[4:3],
{4},4h[2:1]/6<3[4:5],,,,Cfh[1:1],
{8},,,,,,,,,,1>4[8:1],
8,
7,6,5<8[8:1],4,3,2,1-5[8:1],6-8[8:1],
1,6,2-5[8:1],4,2,7-3[8:1],4,7,
1<6[8:1],2,3,4>1[8:1],5,6,7-4[8:1],8-3[8:1],
7,8,6v1[8:1],5,4,3,2>5[8:1],1,
8,7,6-1[8:1],5,4,3,2-5[8:1],8-4[8:1],
2,8,2-7[8:1],5,2,6-3[8:1],4,6,
1-7<6[8:1],2,3,4>1[8:1],5,6,7,8,
{4}1-6[8:1],1bs5[2:1]*-7-3[8:3],,,{2}Cf,
{4}5h[8:1]/4h[8:1],5-2[8:1]/4-7[8:1],
5/4,{8}1-6[8:1],8,1,5-2[8:1],4,5,
{4}3h[4:1],8-5[8:1]*-3[8:1],8,{8}2,3h[4:1]/7h[4:1],
,,{4}6<1[8:1],{8}6,4-7[8:1],,4,
{2}2>5[8:1]*<7[8:1],{4}5x/7x,{8}6/4,3,
{4}1/2-5[8:1],{8}5,6,7<4[8:1],7,3,2,
1>4[4:1],1,{4}4<7[4:1],7>2[4:1],2>5[4:1],
,1bp4[8:3],{8}5,4pp3[8:3],,,{1}3>6[2:1],
{4}7p1[4:1],1p5[4:1],{8}5p7p2[2:1],4,,,{1}2<4[2:1],
{4}2q1[4:1],1q6[8:3],{8}5,6>8[8:3],,,{1}8qq3[2:1],
{4}7p3[4:1],3<6q2[8:3],{8},2qq7[8:7],,,,,,,,,,,{4}4q8[4:1],
8pp1[8:3],{8}2,1<6qq4[8:3],,,{1}4pp5[2:1]*qq3[2:1],
{4}6q2[4:1],2q4[8:3],{8}5,4>7[8:3],,,{1}7qq5[2:1]*q3[2:1],
{4}1<4[4:1],4p2[8:3],{8}1,2q8[8:3],,,{1}8qq5[2:1]*pp3[2:1],
{4}8p4[4:1],4qq6[8:3],{8},1xh[4:1],,,1xh,
1xh,1xh,1x>4[16:1]*<6[16:1],1xh,1xh,,4xh/6xh,
{16}B2,B7,B3,B6,{4}Cf,{16}4,3,4,3,{8}5xh[8:1],{16}2,6xh[8:1],
,3,{8}7xh[8:1],{4}5<8[16:1],{8}5/4,3qq8[8:3],{16}2,4,{8}3b,
,7x,5-8[8:1]*-2[8:1],5,{4}5b,{8}4xh[8:1],{16}7,3xh[8:1],
,6,{8}2xh[8:1],{4}4>1[8:1],{8}6/4,8-5v6[4:1],{16}7,1,{8}8b,
,,{4}Cf/1b-5[8:1],{8},,7xh[8:1],{16}3,8xh[8:1],
,4,{8}1xh[8:1],{4}6-4[8:1],{8}6/3,2qq4[8:3],{16}1,8,{8}2b,
,7,{4}6xw2b[8:1],6,{8}4xh[8:1],{16}8,3xh[8:1],
,7,{8}2xh[8:1],{4}5-2[8:1],{8}5/7-4[8:1],8,{4}1/7bs3b[4:1],
,5bh[2:1],{8},,1xh[8:1],{16}5,2xh[8:1],
,6,{8}3xh[8:1],{4}8>3[8:1],{8}8/7,6pp4[8:3],{16}5,4,{8}6b,
,3x,1-4[8:1]*-6[8:1],1,{4}1b,{8}5xh[8:1],{16}2,6xh[8:1],
,3,{8}7xh[8:1],5-3[8:1],4,5/3,2-5v3[4:1],{16}1,8,{8}2b,
,,6,5/7,{16}3,3,4,4,{8}1xh[8:1],{16}7,2xh[8:1],
{8}6,3xh[8:1],{4}4-6[8:1],{8}4/6,7qq8[4:1],{16}8,1,{8}7b,
,4x,2v5[8:1],6v1[8:1],2,6,4xh[8:1],{16}8,3xh[8:1],
,7,{8}2xh[8:1],{4}5<8[8:1],{16}1,2,3,4h[16:1],,,{8}Cf,
,,{4}1z5[4:1]/6s2[4:1],,,,7b-3[8:1]/2b-8[8:1],
7/2,{8}4/5-2<1[8:1],6,
5/7,8,7-3<4[4:1],6/5,{4}7/4-8[8:1],{8}2-4-8b[4:1],1,
2,6,{4}7>4[2:1],{8}4,5,6,7,
8,1,{4}8-3[8:1]/2-6[8:1],2b/8b,{8}4-6[8:1],7-3[8:1],
4,7,1-6[8:1],8,1,5-2[8:1],4,5,
8pp7[8:3],1,8/2,4pp2[8:3],4,,,1,
8,7,6-3[8:1],6-1[8:1],,,,4qq5[8:3]/5<4[8:3],
{4}6/3,{8},,,,6,5,
4,3,{4}5h[2:1]/4h[2:1],,,{16},,{64}4x>1[8:1],
5x<8[8:1],{16},,,{64},,{48}5b/4b-6-3-7-2-8b[8:5],D5f,D6/D4,D7/D3,{24}D8/D2,,,,,,,,,,,,,,,,,,,{4}6>3[8:1],
{8}6,1-5[8:1],8-4[8:1],1,
8,2,3>8[8:1],8<5[8:1],5>2[8:1],,,C,
{4}7b-4[8:1],{8}1-6[8:1],2,3-8[8:1],4,5-2[8:1],6,
7-4[8:1],8,1qq6[2:1],2,1/3,,,4,
3,2,1/5>2[8:1],6<1[8:1],5,6,,3/4q5[2:1]*>5[2:1],
{4}5/2,,,Cfh[32:1],
{8},,4/5,3,2/1,3,5/4,6,
7/8,6,3/4,2,6/5,7,1,2/4,
3/5,4/6,8/1,7,6/5,7,1/8,2,
3/4,2,5/7,6,4/2,3,7,6/5,
5/4,4/3,{16}6,5,6,5,{8}7,{16}3,4,3,4,{8}2,
{16}8,1,8,1,8,7,6,5,8,7,6,5,1,2,3,4,
1,2,3,4,6,5,6,7,{8}6,{16}3,4,3,2,{8}3,
{16}7,5,7,5,6,4,6,4,5,3,5,3,4,2,4,2,
8-3[8:1],1,7,2,{4}8bs4[2:1]*V26[8:3],,,Cf,
,,2-5[8:1]/6-1[8:1],
2/6,{8}4-7[8:1],5,4,8-3[8:1],1,8,
{4}2h[4:1],5-8[8:1]*-2[8:1],5,{8}3,6h[4:1]/2h[4:1],
,,7<4[8:1],8,7,1-6[8:1],2,1,
{2}3>8[8:1]*<6[8:1],{4}8x/6x,{8}7/1,2,
{4}4/3-8[8:1],{8}8/3,7,6<1[8:1],5,2/6,3,
4>1[4:1],5,{4}1<6[4:1],6>3[4:1],3>8[4:1],
8<2[2:1],Cf,,,,,,,,6h[2:3],
,,{1}5h[4:7],
{4},3h[2:3],,,{1}4h[4:5],
{4},5pp4[2:3],,,{1}4<2[4:3],
{4},3h[2:3],,,{1}4h[4:7],
{4},6h[2:3],,,{1}5h[4:7],
{4},3h[2:3],,,{1}4h[4:7],
{4},5qq6[4:7],,,{1}4<1[4:7],
E
