&title=Cyberozar [2017]
&artist=削除
&first=0
&des_5=TheF;r3f1y -For My Graduation-
&lv_5=14
&des=TheF;r3f1y -For My Graduation-
&clock_count=4
&inote_5=(186)
{1},
{32}1xb/8xb,2x/7x,3x/6hx[32:366],4x,5x<4[8:82],,,,,,,,,,,,,,,,,,,,,,,,,,,,,,,,
{1}
{1},
{1},
{1},
{1},
{1},
{1},,,,,
{24},,,,,,,,,1h[24:11],,,,,,,,,,,,8x/2x,7x/3x,6x/4x,5x<4[8:57],
,,,,,,,,
{8},,,,,,,,1,,2,2,2q5[4:5],,,,,,,,,,,,,,,,5h[1:1],,,,,,,,,,,,6,,7,7,7p6[4:5],,,,,,,,,,,
,,,,,
5x/4x>5[8:14],,,,E7,,,,E1,,,,E3,,,,1x>8[8:14],,,,E7,,,,E5,,,,E3,,,,
3xqq8[8:12],,,,E5,,,,E6,,,,E7,,,,6xpp1[8:12],,,,E5,,,,E4,,,,E3,,,,
{16}65,,,,8h[8:3]/3,,,,,,4,,53,,,,
{16}1,,,,6h[8:3]/2,,2,,,,4,,52,,52,,
{16}34,,,,1h[8:3]/6,,,,,,5,,46,,,,
{16}8,,,,3h[8:3]/7,,7,,,,5,,47,,47,,
{16}2,,2,,4,,4,,6,,6,,8,,8,,37,,2,,46,,7,,35,,2,,61,,7,,
{16}2,4,3,7,5,6,2,1,3,7,8,6,
{24}4>5[1:2],5,4,5,4,5,4bh[1:2],,,,,,,,,,,,,,,,,,,,,,,,,,,,,,,,,,,,,,,,,,,,,,,,,,,,,,
{8}E3,,C,,E7,,
{8}1b/8b-4[8:1],,8,3^8[8:1],,5,6-2[8:1],,6/3-1-4-8[8:3],,8,7^4[8:1],,7,1x-5[8:1],,2V48[8:2]/1,,2,7^4[8:1],,7,1v4[8:1]*v6[8:1],,1,,37,3/7h[8:5],,8,1,2,3-8[8:1],,3/5,5<2[4:1],,3,4-1[8:1],,4-7[8:1]/5,,34,2<5[4:1],,2,4w8[8:1],,,,26,6h[8:3]/2,,,
{16}1,2,3,4,1,8,7,6,8,1,2,3,8,7,6,5,84,15,26,37,4b/8b-4[8:1],,,,18,,2^5[8:1],,,,28,,7-4[8:1]*-3[8:1],,,,7,,,,1,,2h[8:2]/8-6-1-5[8:3],,,,,,2,,3,,4>6[4:1],,,,6,,5-1[8:1],,,,2,,2-6[8:1],,,,28,,,,8,,8>7[8:3],,,,4,,,,,,1-5[8:1],,,,18,,,,
{8}7^4[4:1],,4^1[4:1],,1^6[4:1],,6^3[4:1],,3,,1,1>8[8:5],
,,5xq1[4:1],5x,,,,,
{16}4,3,2,1,5,6,7,8,
{32}4x,3,2,1,8,7,6,5,4b/8b,,,,,,,,
{16}7h[8:1]/2,,,7h[8:1]/4,,,7h[8:1]/1,,,7h[8:1]/5,,,8b/2b,,,,
{16}2h[8:1]/7,,,2h[8:1]/5,,,2h[8:1]/8,,,2h[8:1]/4,,,1b/7b,,,,
{16}2x-5[16:1],,,8x-4b[16:1],,,3x-8[8:1],,,6x-2b[16:1],,,4x,,4x,,3x-8[16:1],,,6,,,7,,2bv5[8:1]/8bv5[8:1],,,,2b/8b,,,,
3h[8:1]/E8/B7/B8,,,3h[8:1]/A5/D6/A6,,,3h[8:1]/A8/D1/A1,,,3h[8:1]/E5/B4/B5,,,1b/Cf,,,,6h[8:1]/E2/B2/B1,,,6h[8:1]/A4/D4/A3,,,6h[8:1]/A1/D1/A8,,,6h[8:1]/E5/B5/B4,,,8b/Cf,,,,3x-8[16:1],,,5x-1b[16:1],,,2x-5[8:1],,,7x-3b[16:1],,,2x,,2x,,
{8}1,8,3,4,2b-5b[8:1]/6b-1[8:1],,2/6b,,37,,1-5[8:1],6,7/1<3[8:3],,1,,2h[8:2],,Ch[4:1],,
{16}2,3,4,5,6,7,8,1,
{8}2b/6h,,37,48,1-6[8:1]/5-2[8:1],,1/5>6[8:3],,Cf,,5w1[8:1],,,,7v4[8:1]/3v8[8:1],,3b/7b,,2^5[8:1],5qq7[8:3],2,,8-4b[8:1],,8,,1h[4:1],,
{24}7,6,5,1,2,3,8,7,6,2,3,4,
{8}8b,,3-8[8:1],4,3/5w1[8:1],,,,
{16}4,3,2,1,4h/8,7,6,5,4/8h,37,26,15,4b/8b,,,,7/3bh[4:1],,,,
{8}1-5[8:1],8,1v4[8:1]/7v4[8:1],,1>6[8:3]/7,,1,,8<4[4:1],,
{16}8x/3x,2,1,8,7,6,5,4,3x/7b,,,,
2-6[8:1],,1,,28,,,,5x-8b[8:1],,,,1b,,,,2-4[8:1]*-6[8:1],,,,2,,,,1v4b[8:1]/7v4b[8:1],,,,1b/7b,,,,
{8}2-6[8:1],7,2/8-4[8:1],,5^2[8:1]/8,,5-7[8:1]*-1[8:1],,5,,
{24}2,3,4,1,2,3,7,6,5,8,7,6,
{8}1b>6[4:1],,6,7,8w4[8:1],,8,,1,28,7,26,4-8b[8:1],35,,,2bx-6[8:1],,8,8>7[8:3],,5,5,,1,1-3-8-4[8:3],6,7-5b[8:1],,7,,2/8-6-2[8:2],,2,1,1<3[8:3],,6,6,,
{16}1,8,7,6,8,1,2,3,7,6,5,4,1,2,3,4,
{8}5/1-5[8:1],,4,3-8[8:1],,
{16}7,6,5-1[8:1],,,,2-6[8:1],,,,8,,8-4[8:1],,,,1,2,3-1[8:1]*-7[8:1],,,,3,,,,
{8}45,3^8[8:1]/6,,7,6,5,4-8[8:1],2>6[8:1],4,2,,1,1w5[8:1],,1b,,37,2/8>7[8:3],,4,4,,1,2q5[8:3],8,8-4b[8:1],,8x,,26,,7<1[16:5],4,4h[8:3],,,
{16}8,7,6,5,1,2,3,4,7,6,5,4,
{32}2b,3,4,5,6,7,8,1,
{8}2/6b,,
1-6[8:1],6^1[8:1],1^4[8:1],5-1b[8:1],,5,,3,7^4[8:1],4-7[8:1],7^1-5[4:1],2-4b[8:1],,2,,3,28,1,78,6,35,4,57,8,12,3,45,6,87,1,
{32}
82,3,4,5,6,7,8,1,6b/2b-6[4:29]*-6[4:29],,,,,,,,,,,,,,,,
{1},,,
{4},,B8h[4:4]/E8h[4:4]/B7h[4:4],,,,,,,,B4h[4:4]/E4h[4:4]/B3h[4:4],,,,,,,,7h[4:6]/1,1,2,2,3,3,4-1[8:1],7,2h[4:6]/8,8,7,7,6,6,5-8b[8:1],3,6h[4:1]/2,2,7h[4:1]/3,3,8h[4:1]/4,4,1-6[8:1]/5v2[8:1],15,3h[4:1]/7,7,2h[4:1]/6,6,1h[4:1]/5,5,4-7b[8:1]/8-3[8:1],8b/4b,6/2hx[4:6],
{16}8,,8,,,,4,,4,,,,7,,7,,,,5,,5-1[8:1],,,,3h[16:1],,3h[16:1],,2x/8hx[4:6],,,,1,,1,,,,5,,5,,,,2,,2,,,,4,,4-8[8:1],,,,6h[16:1],,6h[16:1],,1x/7hx[4:6],,,,2,,2,,,,4,,4,,,,6,,6,,,,8,,8-4[8:1],,,,6h[16:1],,6h[16:1],,5xh[4:6]/3x,,,,6,,6,,,,8,,8,,,,2,,2,,,,4,,4^1[8:1],,,,8,7,6,5,
{8}Cf,,,,,,,,,,,,E8,,E7,,E6,,,4h[8:9]/5x,,,,,,,,,D1/E1,,,,E7,,,E8/E6,,,,,E3,,,E4/E2,,,,,E5,,,E6,,,C,2xq5[8:7],,,,,,,,,7-3[4:7],,,,,,,,,,,,2,,,,1-5[4:7],,,,,,,,,,,,6,,,,7,,,7h[8:8],,,,,2,,,2h[8:11],,,,,8,,,8h[8:4],,,,,
Chf[4:8]/E3h[4:4]/B3h[8:11]/B2h[8:10]/E7h[8:9]/B7h[8:11]/B6h[8:12]/,,,,,,,,,,,,,,,,,,,,,,
{8}1b/8b,,5h[4:1]/3,,
{24}7xb,8,1,2,3,4,5h[4:1]/1,,,,,,2xb,1,8,7,6,5,4x/8>6[24:5],,,,,,8x/5h[4:1],,,,,,7x,8,1,2,3,4,5/1b,,,,,,3h[4:1]/8,,,,,,2xb,1,8,7,6,5,4x/8h[4:1],,,,,,3xb,4,5,6,7,8,1<3[24:5]/5x,,,,,,1x/4hx[4:1],,,,,,2x,1,8,7,6,5,4x/8bV64[8:1],,,,,,8/2-6[8:1],,,,,,2/6x,,,,,,8x>5[24:5],1>6[24:5],2>7[24:5],3<8[24:5],,,,,,8x,,,
{8}2hx[4:1],,1x,,
{24}3x/1x<4[24:5],8<3[24:5],7<2[24:5],6>1[24:5],,,,,,1x,,,
{8}8x-4[8:1],,8/2x-5[8:1],,7-3[8:1]/2,,7/4-8[8:1],,4/6-2[8:1],,6/5w1[8:1],,5,,3v8[8:1]/7v4[8:1],,3b/7b,,6h[8:2]/2,,
{32}3x,4,5,6,7,8,1,2,3b-7[8:1]/7b,,,,,,,,35,,,,,,,,2h[8:2]/6,,,,,,,,5x,4,3,2,1,8,7,6,1bw5[8:1]/5b,,,,,,,,1b,,,,,,,,37,,,,,,,,
{16}1b/2b,,,3b,4b,,5b/2b,,7b/8b,,,6b,5b,,4b/7b-3b[16:1],,,,4bh[4:1],,,,5x,,5bx-1[8:1],,,,2-6[8:1]*-4[8:1],,,,2-8[8:1],,,,2/5xh[4:3],,,,7bx>6[16:3],,,,7x,,,,
{24}A6,A7,A8,A1,A2,A3,4xb-8[8:1]/8x,,,,,,4/2-6[8:1],,,,,,7,,,
{8}7>5[8:3],,,5<1[4:1],,1>5[4:1],,5,,
{32}1b,2,3,4,5,6,7,8,1b-5[8:1]/Cf,,,,,,,,7s3[4:1]/1,,,,,,,,
{8},,4-8[8:1],,4,,
{24}1bv4[8:1]/7bv4[8:1],26,35,,,,
{8}1b/7b,,
{16}26,3,4,5,6,7,8,1,
{8}2bs6[4:1]/6b,,6,7,8-4[8:1],,3>5[4:1],,Cf,,1-5[8:1],,17,,6-2[8:1],,4b`Cf,,3qq3[4:1],5,3<8[16:4],,C,,1xw5b[8:1],,1,,
{24}2,3,4,8,7,6,1,2,3,7,6,5,
{8}1b,,6^1[8:1],5,6/4bw8[8:1],,,,
{16}6h/2,5,4,3,2,1,8,7,6/1h,2,3,4,5,6,7,8,1/5b,,,,
{8}7-3[8:1],8,1-5[8:1]/7-5[8:1],,1>6[4:1]/7,,71,,8<4[4:1],,
{16}83,2,1,8,7,6,5,4,3/7b,,,,
{8}8z4[4:1],1,2x,,1xw5[8:1],,1b,,7/3-8[8:1],,3b/5bh[4:1],,
{32}2x,3,4,5,6,7,8,1,
{8}2/6b,,1-5[8:1]/7,8,1/7^5[8:1]*-3[8:1],,7,,2-6[8:1]/8,,2/4h[4:1],,
{16}7x,8,1,2,3x/5x-1[8:1],6,7,8,1x/5b,,,,
{24}
2^5[8:1]/8^5[8:1],,,,,,28,,,,,,
{8}1s5[8:1],,7hb[8:5],,,,,
{28}3b,2b,1b,8b,7b,6b,5b,
