&title=Believe In...Myself
&artist=大野柚布子 / 遠藤ゆりか / 古賀葵
&first=-0.03
&des_5=kano
&lv_5=13+
&des=kano
&inote_5=(195){4},{1},{4},{16},,,6,
,,,6,
,,,6,,3,4,3,,8h[8:3],,,,5,,5,
,7h[4:1],,5,,5,,6h[4:1],,5,,5,,7h[4:1],,5,
,5,,8h[4:1],,5,,4,,3/7h[8:3],,,,2,,2,
,1h[4:1],,4,,4,,2h[4:1],,4,,4,,3h[4:1],,4,
,4,,2h[4:1],,5,,6,,7/4h[8:3],,,,8,,8,
,3h[4:1],,8,,8,,2h[4:1],,8,,8,,1h[4:1],,7,
,7,,2h[4:1],,6,,6,,5/1h[8:3],,,,5,,5,
,2h[4:1],,5,,5,,3h[4:1],,5,,5,,2h[4:1],,6,
,7,,8h[4:1],,1,,2,,7h[8:3],,,,2,,2,
,1h[4:1],,7,,7,,8h[4:1],,2,,2,,1h[4:1],,6,
,6,,7h[4:1],,3,,3,,1h[8:3],,,,5,,5,
,2h[4:1],,6,,6,,3h[4:1],,7,,7,,4h[4:1],,8,
,8,,3h[4:1],,7,,7,,2/6h[8:3],,,,5,,5,
,4h[4:1],,5,,5,,7h[4:1],,5,,5,,3h[4:1],,5,
,5,,4,,4,,5,,5/4h[8:3],,,,5,,5,
,3h[4:1],,4,,4,,6h[4:1],,4,,4,,2h[4:1],,4,
,4,,2x,4x,2x,{8}4x,{16},8bx/2bx,,,,4,5,4,
,7-4[8:1],,3,,7,,,,3bx/5bx,,,,1,8,1,
,6-1[8:1],,2,,6,,,,1bx/8bx,,,,6,5,6,
,4>2[8:1],,6,,7,,,,8-5[8:1],,,,1,,2,
,3-8[8:1],,4,,5,,,,7bx/1bx,,,,2,2,8,
,1-5[8:1],,7,,1,,,,2bx/8bx,,,,7,7,1,
,8-4[8:1],,2,,8,,,,,,4x/3x,,5x/2x,,,,7x,
,6x/8x,,,,7-4[8:1]/2-5[8:1],,7bx/2bx,,,,,,,,3x,
5x,4x,5x,4x,5x,4x,5x,4h[16:7],{8},,,,,{4}7-2[4:1],
5,4-1[4:1],
{8}6,6-3[4:1],,3-5-8[8:5],,1h[8:5],,,,,,,,2/8,
{4}2/8,
{8}6/5,4V28[4:1],,8V64[4:1],,4b-2-5[8:3],,,,,,,,7,
{4}7/8,
{8}3/5,5/3,,4h[4:1],,6>8[2:1],,2,
2h[8:3],{2},{8}8bx/2bx,,,,{16}1,
8,{4}1h[8:3],{8},7b,{4},1/7-4[8:1],
2/7,8/2-5[8:1],2/6-1[8:1],
{8}6,2,,3-8[8:1],,4/3>5[8:5],,,,,,,,2,
{4}2,
{8}5/4,5-1[8:1]/4-2[8:1],,5-7[8:1]/4-8[8:1],,5<3[8:3]/4>6[8:3],,,,,,,,6/2,
{4}6/2,
{8}3/7,4-1[8:1],,4/5,,7b,,4/6,
{4}3/5,{8}3,{16}5,4,5,4,{8}5,1/2,2/1,
3/8,3/8,{16}2x,3x,4x,5x,6x,7x,8x,1x,{4}2bx/Ch[8:25],
,,,B6,
,B7,,B8/B1/E1,
,,,4xh[1:1],
,1b,,1>8[8:17],
,E2/B2,,B4/B3,
,C,,5xh[8:7],
,{16}E1,E2,E3,E4,E5,E6,E7,E8,4x/E1,3x,2x,1x,
8x,7x,6x,5x,{4}4x/2x,{8}5x/2x,5xh[8:3]/2xh[8:3],{2},{4}7,
{8}6/8,8h[8:3]/6h[8:3],{2},{4}3/5,
{8}4/2,4h[8:3]/2h[8:3],{2},{8}2/7,
8/1,,8-6[8:1]/1-5[8:1],,8/1,
{16},,{8}8-4[8:1]/1-3[8:1],,8/1,,7/2,6,6,
4,2/5,1,1,3>6[4:1],8h[8:3],{2},{16}4,
6,4,6,3,5,3,5,{8}6x/2x,6x/2x,
,8/1,{4}8/1,{8}7/2,7h[4:1]/2h[4:1],{2},{4}7-4[8:1],
{8}7/8,1>3[8:1],,4,
4,5,{4}6/4-2[8:1],{8}4/7,8-5[8:1]*-3[8:1],,8b,
{4},6/2-8[8:1],{8}2/7,7-4[8:1],,7/3,
3,2,{4}1-5[8:1],{8}1/5,4-7[8:1]*-1[8:1],,4b,
{4},6/2,{8}7/3,{16}6,5,{8}6,{16}6,5,
{8}6,{16}6,5,{8}6,{16}6,5,{8}6,6x-1[8:1],,6/3-8[8:1],
,3/7-4[8:1],,7/1w5[8:1],,1b/Cf,{2},{4}7/3,
{8}8/4,1-6[8:1]/5v2[8:1],,5/1,
{4},2-5[8:1],{8}2/1,8<6[8:1],,5,
5,4,{4}3/5-7[8:1],{8}5/2,1v4[8:1]*v6[8:1],,1b,
{4},{8}7/5,7/5,2/1,1/2>4[8:1],{4},{8}7,
8-5[8:1],,8-3[8:1],,8<5[8:1],,8b,
{4},1-6-2-5[4:3],{8}8x,8xh[8:5],{4},,,{8}8/4,
8h[8:3]/4h[8:3],{2},{4}6/5,
{8}4/3,5/2,,{16}7,5,
{8}7,{16}2,4,{8}2,{16}7,5,{8}6,{16}2,4,{8}3,{16}5,4,
5p4>5b[1:1],4,5,4,{4}5,{8},1xh[8:5],,,,,,,,5/3,
,6/2,
{4}6/2,6h[8:3]/2h[8:3],{32},,,,,3bx/7bx,4bx/8bx,5bx-3-8v6[32:45]/1bx-7-4v2[32:45],{8},,,,,,,,,,,,,,,7h[8:13],
{4},5,
4,3,2,
1,B2/B3,{8}8,8-6-1-3-8[2:3],{4},5,
5,4,4,
5,B5/B4/E5,{8}2,2h[4:1],{4},7h[8:1]/3h[8:1],
6h[8:1]/2h[8:1],5h[8:1]/1h[8:1],{8}3,7,
4,8,3,7,{32}2x,3x,4x,5x,{8}8b,,7,
7,4,{4}4-2[8:1],{8}1,8-6[8:1],,8/5-1[8:1],
,5,7,7,,5/2,,3,
4,5,{4}6/2,{8}7/3,3/7v4[8:1],,2,
{4}1-4[8:1],1/8-5[8:1],{8}8,2,,6/3,
{4}6/3,7/4,{8}2/1,2/1,,6/5,
,4/2,{4}2-6[8:1],{8}8h[8:1],{4},{8}7/1,
{2}7h[4:1]/1h[4:1],{4}5/4,{8}7/2,8-6[8:1],
1,2,3-1[8:1],4,5,6h[4:1],,5,
4-8[8:1],3,{4}2,{8}1-5[8:1],1,,7-4[8:1],
,7/3,2,2,,6/5,,{16}3,4,
{8}3,5,{4}6h[8:3],{8}5,5-2[8:1],,6,
7,8-5[8:1],{4}1,{8}2,2-5[8:1],,2/7,
{4}8-4[8:1],8/1,{8}3,2-5[8:1],,2/6,
{4}7,8,{8}2/8,3h[8:1]/7h[8:1],{4},{8}6h/4h,
4/6,7h/3h,7/3,8h/2h,2/8,7/1,7/1,
{16}2h,6h,2h,6h,{4}Cfh[8:3],{8},8<1[1:1],,,,,,,,C,
,C,
{4},4,{8}5/3,6/2,,1,
1,8,{4}8-6[8:1],{8}8/1,2-5[8:1],,2/5,
{4},7/4,{8}6/5,5/6,,4,
4,7,{4}7,{8}8/2,1-4[8:1],,1-6[8:1],
,1-5[8:1],,1>4[8:1],,1,{2},{4}7-4[8:1],
{8}7,1-5[8:1],,1,
{4},6/4,{8}5,6h[2:1],,5,
5,5,{4}4,{8}3/5,2/6,,7/3,
{4},{8}2,1,8,7h[4:1],{4},{8}5,
6-2[8:1],,6/5-1[8:1],,5<8[8:1],,5,
{4},{16}2,1,2,1,2,1,2,1,3,8,3,8,
3,8,3,8,{4}4/7,{8}6b/5b,6b/5b,{2},{4}7/2,
{8}8/1,7b/2b,,{16}6,5,
{8}7,8/3,{16}2,2,{8}1,8/3,7<4[8:1],,{32}4,3,2,1,
{4},4/3,{8}5/2,6/1,,{16}3,4,
{8}2,1/6,{16}7,7,{8}8,1/6,2>5[8:1],,{32}5,6,7,8,
{4},6/5,{8}7/4,{16}2,1,{8}2,{16}2,3,
{8}2,{16}2,1,{8}2,{16}2,3,{8}2,2-5[8:1],,2/7v4[8:1],
,7/1-5[8:1],,1<6[8:1]*>4[8:1],,1b,{2},{16}7,
5,{8}6,1,2-5[8:1],,2/1,
{4},5/1,{8}7/3,6/5,,{16}4,4,
{8}7,5-2[8:1],6,5,{16}6x,7x,{8}8-5[8:1],,8/4,
{4},{8}3,3/5,5/3,6/2,{4},{8}7/5,
5/7,,2/7,,{32}1b/8<5[8:1],2,3,4,{8},8,
{4},{8}2/5,5/2,,7-4[8:1],7,1-5[8:1],
1,6-2[8:1],6,3-7[8:1],3,5b,{4}5b,
,6/4,{8}7/3,{16}1,2,8,7,1,2,
8,7,,2,3,7,6,2,3,7,{8}6,{16}1,2,3,4,
5,6,7,8,{32}5,4,3,2,1,8,7,6,5,4,3,2,{8}5/1-5[8:1],{4},,,{8}7/5,
7h[4:1]/5h[4:1],{2},{8}7/2,
8-4[8:1]/1-5[8:1],,8b/1b/Cf,,,,,,,,8h[4:1],
,{16}5,5,
{8}6-2-5[4:1],4,{4}5-1[8:1],{8},2h[4:1],,{16}5,5,
{8}4-8-5[4:1],6,{4}5-1[8:1],{8},7x,{4}7-4[8:1],
{8}7/2,1-5[8:1],,1/6<3[4:1],,6b/Cf,,,,,,,,3/6,
,{16}1,1,
{8}7,3<6[8:1],8,3,,8/1,,{16}5,5,
{8}3,7<4[8:1],2,7,{4},{8}1>3[8:1],8,
7,6<8[8:1],5,4,3,2-5[8:1],1,7-3[8:1],
8,2-6[8:1],1,7-4[8:1],8,3-8[8:1],2,5-1[32:3],
6,4-8[8:1],3,7<4[8:1],6,1>4[8:1],,7,
7,8,{4}8/2,{8}3/7,4,,{16}6,5,
{8}6,7h[4:1]/4h[4:1],,,,2h[8:3],,{16}8,7,
6,5,1,8,7,6,2,1,8,7,{8}6/3,,{16}4,5,
4,5,3,6,3,6,2,7,2,7,{8},8/1,2/7,
,3/4,{4}5/2,{8}8/7,{32}8/7,6/1,5/2,4/3,
E
