&title=About The Universe
&artist=SOTUI & MIssionary
&first=0.384
&des=Tencad
&lv_5=14
&des_5=Tencad
&inote_5=
(180){4},{1},,,,,,{4},,,{2}5h[2:1],
3V17[1:1],
,7V53[1:1],
,3V17[1:1],
,7V53[1:1],
7x,3V17[1:1],
,7V53[1:1],
,3V17[1:1],
,7V53[2:1],
{4},,5/4,5/4,
3/6,6/3,7/2,2/7,
8/1,8/1,4/5,1/8,
5/4,1/8,7/3,6/2,
7/3,{8}6/2,3/7,{4}6/2,8/1,
8/1,7/2,2/7,6/3,
6/3,4/5,5/4,1bx/8bx,
5bx/4bx,8bx/1bx,{2}Cf,
{8},,,,,,,,,,,,8/1,
,,5/4,
,3/6,,2/7,,3/6,,1xw5[4:1],
,,,,7xh[16:3],{32}2,3,{16}4,{8}6h[16:3],{32}1,2,{16}3,
{8}7h[16:3],{32}2,3,{16}4,{8}6h[16:3],{32}1,2,{16}3,{8}2xh[16:3],{32}7,6,{16}5,{8}3h[16:3],{32}8,7,{16}6,
{8}2h[16:3],{32}7,6,{16}5,{8}3h[16:3],{32}8,7,{16}6,{8}7xh[16:3],{32}2,3,{16}4,{8}6h[16:3],{32}1,2,{16}3,
{8}7h[16:3],{32}2,3,{16}4,{8}6h[16:3],{32}1,2,{16}3,{8}2xh[16:3],{32}7,6,{16}5,{8}3h[16:3],{32}8,7,{16}6,
{8}2h[16:3],{32}7,6,{16}5,{8}3h[16:3],{32}8,7,{16}6,{8}7xh[16:3],{32}2,3,{16}4,{8}6h[16:3],{32}1,2,{16}3,
{8}7h[16:3],{32}2,3,{16}4,{8}6h[16:3],{32}1,2,{16}3,{8}2xh[16:3],{32}7,6,{16}5,{8}3h[16:3],{32}8,7,{16}6,
{8}2h[16:3],{32}7,6,{16}5,{8}3h[16:3],{32}8,7,{16}6,{8}7xh[16:3],{32}2,3,{16}4,{8}6h[16:3],{32}1,2,{16}3,
{8}7h[16:3],{32}2,3,{16}4,{8}6h[16:3],{32}1,2,{16}3,{2}1bxw5[8:1],
8bxw4[8:1],{8}2xh[16:3],{32}7,6,{16}5,{8}3h[16:3],{32}8,7,{16}6,
{8}2h[16:3],{32}7,6,{16}5,{8}3h[16:3],{32}8,7,{16}6,{8}7xh[16:3],{32}2,3,{16}4,{8}6h[16:3],{32}1,2,{16}3,
{8}7h[16:3],{32}2,3,{16}4,{8}6h[16:3],{32}1,2,{16}3,{8}2xh[16:3],{32}7,6,{16}5,{8}3h[16:3],{32}8,7,{16}6,
{8}2h[16:3],{32}7,6,{16}5,{8}3h[16:3],{32}8,7,{16}6,{8}7xh[16:3],{32}2,3,{16}4,{8}6h[16:3],{32}1,2,{16}3,
{8}7h[16:3],{32}2,3,{16}4,{8}6h[16:3],{32}1,2,{16}3,{8}2xh[16:3],{32}7,6,{16}5,{8}3h[16:3],{32}8,7,{16}6,
{8}2h[16:3],{32}7,6,{16}5,{8}3h[16:3],{32}8,7,{16}6,{8}7xh[16:3],{32}2,3,{16}4,{8}6h[16:3],{32}1,2,{16}3,
{8}7h[16:3],{32}2,3,{16}4,{8}6h[16:3],{32}1,2,{16}3,{8}2xh[16:3],{32}7,6,{16}5,{8}3xh[32:1],{32}8/2h[4:1],7,{16}6,
{32},,,,7,6,{16}5,{8}3h[16:3],{32}8,7,{16}6,{2}1x-6[8:1]*-4[8:1],
{4}8x-3[8:1]*-5[8:1],,,E6,
E5,E4,B2,B1,
B8,B7,{2}Ch[8:5],
{4},E8,E1,E2,
E4,E5,E6h[4:1],E5h[2:1],
,E8h[4:1],E1h[4:1],E2h[2:1],
,E4h[4:1],E5h[4:1],E6h[4:1],
E5h[4:1],E7h[4:1],{2}Ch[2:1],
{4},,,,B6,
B5,B4,B3,
B2,B1,{2}Ch[2:1],
{4},E6,E5,E4,
E2,E1,{8}E8,,,C,
,,{4}C,E7,E3,
,E1,E3,E5,
E7,E1,{2}Ch[4:3],
{4},,6/5,6/5,
{8}6/5,,,1/2,,2/1,,1/2,
{4}1-6[8:1],A1,3/4,3/4,
{8}3/4,4/3,,8/7,,7/8,,8/7,
{2}8-2-4[16:3],{4}7/8,7/8,
{8}7/8,,,4/3,,3/4,,4/3,
{4}4-7[8:1],A4,2/1,2/1,
{8}2/1,1/2,,5/6,,6/5,,5/6,
{2}5-3-1[16:3],{4}4/5,5/4,
6/3,6/3,7/2,7/2,
8/1,1/8,2/7,7/2,
3/6,6/3,4/5,4/5,
4/5,5/4,{8}2,2,7,7,
3,3,6,6,4,4,5,5,
3,3,6,6,{16}1,2,3,4,5,6,7,8,
1,2,3,4,5,6,7,8,{2}C,
,3-6[2:1]/7-2[2:1],
,,8-5>4-1[8:1],
{8}8-6[8:1],2h[8:1],8-4[8:1],2h[8:1],
8-6[8:1],2h[8:1],8-4[8:1],3h[8:1],8-6[8:1],3h[8:1],8-4[8:1],3h[8:1],
{4}8-6[8:1],3/A8,{8}1-3[8:1],7h[8:1],1-5[8:1],7h[8:1],
1-3[8:1],7h[8:1],1-5[8:1],6h[8:1],1-3[8:1],6h[8:1],1-5[8:1],6h[8:1],
{16}1-3[8:1],,,6,{8}A1,6,8-6[8:1],2h[8:1],8-4[8:1],2h[8:1],
8-6[8:1],2h[8:1],8-4[8:1],3h[8:1],8-6[8:1],3h[8:1],8-4[8:1],3h[8:1],
{4}8-6[8:1],3/A8,{8}1-3[8:1],7h[8:1],1-5[8:1],7h[8:1],
1-3[8:1],7h[8:1],1-5[8:1],6h[8:1],1-3[8:1],6h[8:1],1-5[8:1],6h[8:1],
{16}1-3[8:1],,,6,{8}A1,6,8-6[8:1],2h[8:1],8-4[8:1],2h[8:1],
8-6[8:1],2h[8:1],8-4[8:1],3h[8:1],8-6[8:1],3h[8:1],8-4[8:1],3h[8:1],
{4}8-6[8:1],3/A8,{8}1-3[8:1],7h[8:1],1-5[8:1],7h[8:1],
1-3[8:1],7h[8:1],1-5[8:1],6h[8:1],1-3[8:1],6h[8:1],1-5[8:1],6h[8:1],
{16}1-3[8:1],,,6,{8}A1,6,8-6[8:1],2h[8:1],8-4[8:1],2h[8:1],
8-6[8:1],2h[8:1],8-4[8:1],3h[8:1],8-6[8:1],3h[8:1],8-4[8:1],3h[8:1],
{4}8-6[8:1],3/A8,{8}1-3[8:1],7xh[8:1],1-5[8:1],7h[8:1],
1-3[8:1],7h[8:1],1-5[8:1],6h[8:1],1-3[8:1],6x,6x/1-5[8:1],6h[8:1],
{16}1-3[8:1],,,6,{8}A1,6,2xh[16:3],{32}7,6,{16}5,{8}3h[16:3],{32}8,7,{16}6,
{8}2h[16:3],{32}7,6,{16}5,{8}3h[16:3],{32}8,7,{16}6,{8}7xh[16:3],{32}2,3,{16}4,{8}6h[16:3],{32}1,2,{16}3,
{8}7h[16:3],{32}2,3,{16}4,{8}6h[16:3],{32}1,2,{16}3,{8}2xh[16:3],{32}7,6,{16}5,{8}3h[16:3],{32}8,7,{16}6,
{8}2h[16:3],{32}7,6,{16}5,{8}3h[16:3],{32}8,7,{16}6,{8}7xh[16:3],{32}2,3,{16}4,{8}6h[16:3],{32}1,2,{16}3,
{8}7h[16:3],{32}2,3,{16}4,{8}6h[16:3],{32}1,2,{16}3,{8}2xh[16:3],{32}7,6,{16}5,{8}3h[16:3],{32}8,7,{16}6,
{8}2h[16:3],{32}7,6,{16}5,{8}3h[16:3],{32}8,7,{16}6,{8}7xh[16:3],{32}2,3,{16}4,{8}6h[16:3],{32}1,2,{16}3,
{8}7h[16:3],{32}2,3,{16}4,{8}6h[16:3],{32}1,2,{16}3,{8}2xh[16:3],{32}7,6,{16}5,{8}3h[16:3],{32}8,7,{16}6,
{8}2h[16:3],{32}7,6,{16}5,{8}3h[16:3],{32}8,7,{16}6,{2}8w4[8:1],
1w5[8:1],{8}7xh[16:3],{32}2,3,{16}4,{8}6h[16:3],{32}1,2,{16}3,
{8}7h[16:3],{32}2,3,{16}4,{8}6h[16:3],{32}1,2,{16}3,{8}2xh[16:3],{32}7,6,{16}5,{8}3h[16:3],{32}8,7,{16}6,
{8}2h[16:3],{32}7,6,{16}5,{8}3h[16:3],{32}8,7,{16}6,{8}7xh[16:3],{32}2,3,{16}4,{8}6h[16:3],{32}1,2,{16}3,
{8}7h[16:3],{32}2,3,{16}4,{8}6h[16:3],{32}1,2,{16}3,{8}2xh[16:3],{32}7,6,{16}5,{8}3h[16:3],{32}8,7,{16}6,
{8}2h[16:3],{32}7,6,{16}5,{8}3h[16:3],{32}8,7,{16}6,{8}7xh[16:3],{32}2,3,{16}4,{8}6h[16:3],{32}1,2,{16}3,
{8}7h[16:3],{32}2,3,{16}4,{8}6h[16:3],{32}1,2,{16}3,{8}2xh[16:3],{32}7,6,{16}5,{8}3h[16:3],{32}8,7,{16}6,
{8}2h[16:3],{32}7,6,{16}5,{8}3h[16:3],{32}8,7,{16}6,{8}7xh[16:3],{32}2,3,{16}4,{8}6xh[32:1],{32}1/7h[4:1],2,{16}3,
{32},,,,2,3,{16}4,{8}6h[16:3],{32}1,2,{16}3,{2}8bx-5[8:1]*-3[8:1],
{1}1bx-6b[4:7]*-4b[4:7],
E
