&title=ゲシュタルト
&artist=花譜
&first=-0.9
&des=bhunterb
&wholebpm=150
&lv_5=13+
&inote_5=(150)
{1},
{16}3h[16:3],5h[16:2],,,,,6h[16:3],4h[16:2],,,,,,,,,
{16}2h[16:3],8h[16:2],,,{32}B7/B6,,,,3x,4x,5x,6x,7x,8x-5[12:1],1xh[16:1],,,,,,B2/B3,,,,,,,,
{16}2h[16:3],6,,7,,,2h[16:3],6,,7,,,1/8,,,,
{16}6h[16:3],4,,2,,,6h[16:3],4,,2,,,1/7,,,,
{16}3h[16:3],5,,7,,,3h[16:3],5,,7,,,8/2,,,,
{16}2h[16:3],4,,6h[16:3],,,3h[16:3],5,6xb-3b[12:1],7h[16:3],,,6xb,,,,
||{16},B8,B1,E2,,,,E6,B5,B4,,,,,,,
{32},A3,,E3,,E2/7xh[32:51],,,
,,,,A1,,E1,,E8/B7,,,,,,,,,,,,,,,,
{32},E4,,E3,,E2/B1,,,
,,,,,,,,E2,,E3,,E4,,E5,,E6,,,,,,,,
{32},A7/B7,,B6/A6,,A5/B5,,,
,,,,A4/B4,,B3/A3,,A2/B2,,,,,,,,,,,,,,,,
{32}6xh[8:1]/B6,,,,,,,,
B3/3xh[8:1],,,,5x<1[8:2],,6xh[32:14],,,,,,5x,,,,,,,,,,,,
{16}5hx[8:1]/2hx[8:1],,,,4h[8:1]/7h[8:1],,,,4/8h[8:1],5,6,7,8,1,2,3,
{16}4h[8:1]/7h[8:1],,,,2h[8:1]/6h[8:1],,,,3h[8:1]/7h[8:1],,,,8,1,2,3,
{16}4,5,63,72,81,,6xh[8:2]/B2,,,8,8,,1,1,,,
{16},,{48}8b/2bx,3x,4x,5x,,,,,,7b,6x,5x,4x,,,,,,1b-6[8:1],2x,3x,4x,,,,,,,,,1qq4[8:4]*q3[8:4],,,,,,,,,,,,
{16}1,,,,,,,,,,,,5,,5h[8:7],,
{16}6,,,,7,,,,8,,,,8>5[8:4]*pp6[8:4],,,,
{16}8,,,,,,,,,,,,4,,4h[8:7],,
{16}3,,,,2,,,,1,,,,1qq4[8:4]*<4[8:4],,,,
{16}1,,,,,,,,,,,,1pp4[8:4],,5,,
{16}1,,6,,6,,7,,8,,7,,6,,5/3,,
{16}7hx[8:2]/5V31[8:1],,,,5,,6,,4V68[8:1]/2hx[8:2],,,,4,,3,,
{16}7hx[8:2]/5V31[8:1],,,,5,,6,,4V68[8:1]/2hx[8:2],,,,4,,3,,
{16}17,,28,,17,,28,,16,,38,,16,,38,,
{16}75,,42,,75,,42,,76,,32,,76,,32,,
{16}1bx-6-2-4b[8:2]/8bx,,,,,,,,,,,,1-5[8:1],,8,,
{16}1/7-2[8:1],,,,7-4[8:1]/3,,4<8[8:1],,7>2[8:1],,2,,3,,4h[8:1],,
{16}8-3[8:1],,3>8[8:1],,8<2b[8:2],,{24}2x,,,B8,B7,B6,B5,B4,B3,{16}B2f/A2,,,,
{16}4xhb[8:1]/B7,,,5hb[8:1]/B2,,,4hb[8:1]/B7,,,5hb[8:1]/B2,,,3b/6b,,,,
{16}3hb[8:1]/E8,,,6hb[8:1]/E2,,,4hb[8:1]/B8,,,5hb[8:1]/B1,,,7,,7h[16:5],,
{16}8,1,2,3h[16:3],,,1,8,7,6-3-6-3-6[16:15]/2-7-2-7-2[16:15],,,2xbh[32:2]/6xbh[32:2],,,,
{8}A7/A3,,A2/A6,,A3/A7,,A2/A6,7,
{8}1>6[8:2]/8,,6V41[16:3],,8w4[8:1],,8,,
{16}6h[8:1]/5,,,3h[8:1]/4,,,4/5,,
2bh[8:2]/6bh[8:2],,,,{32},3x/7x,4x/8x,1x/5x,,,,,
{16}2-5[8:1],,7-4[8:1],,2,,7,,1V35[8:1],,5v2[8:1],,1,,7,,
{16}8-3[8:1],,3>8[8:1],,8<2b[8:2],,{24}2x,,,B8,B7,B6,B5,B4,B3,{16}B2f/A2,,,,
{16}4xhb[8:1]/B7,,,5hb[8:1]/B2,,,4hb[8:1]/B7,,,5hb[8:1]/B2,,,3b/6b,,,,
{16}3hb[8:1]/E8,,,6hb[8:1]/E2,,,4hb[8:1]/B8,,,5hb[8:1]/B1,,,7,,7h[16:5],,
{16}2,2x,,1h[16:3],,,7,7x,,6-3-6-3-6[16:15]/2-7-2-7-2[16:15],,,2xbh[16:1]/6xbh[16:1],,,,
{8}A7/A3,,A2/A6,,A3/A7,,A2/A6,7,
{8}1<4[8:2]/8,,4V62[32:6],,8w4[8:1],,8,,
{16}2h[8:1]/6,,,3h[8:1]/4,,,4/2,,
{32}1b/7b,2,3,4,5,6,7,8,{32}1/5,,5x,,5x,,,,
{8}1h[8:2]/6h[8:9],,,,2h[8:2],,,,
{8},8b,1b,2b,3b/5bw1b[8:1],,B2/A2/Cf/B8/A8,,
{8}2x>3-6<7-2[8:12],,,,,,,,
{8},,,,,,,,
{8}3,,3,,3,,3,,
{8}34,,35,,2xb/6xb,3xb/7xb,2hxb[8:2]/6hxb[8:2],,
{8},,B2/A2,,B3/A3,,B4/A4,,
{8}B5/A5,,B6/A6,,B7/A7,,B8/A8,,
{8}B1/A1,,B2/A2,,B3/A3,,B4/A4,,
{8}B5/A5,,B6/A6,,B7/A7/2,2,2/B8/A8,,
{8}45,45,16,,45,45,38,,
{8}15,26,37,48,15,26,37,48,
{8}81,82,73,64,4-1[8:1]/5-8[8:1],62,45,,
{8}C,B3h[8:4]/E3h[8:4]/B2h[8:4]/B1h[8:4]/B8h[8:4]/B7h[8:4]/E7h[8:4]/B6h[8:4],,,,
C,A1/D2/A2/D3/D1f/A8/D8/A7/D7,,
{4}2xb-5[8:1]/8bx,A2f/7-2[8:1],A7f/3xb-7[8:1],A3f/8xb-5[8:1],
{8}A8f/2xb-6[8:1],1,A2f/7xbV53[8:1],8,A7f/2xbV48[8:1],,A2f/5V73[8:1],,
{8}A5f/4xbV28[8:1],,A4f/6xbV47[8:1],,A6f/2xbV84[8:1],,A2f/7xbV53[8:1],,
{8}A7f/2V41[8:1],1,A2f/6V84[8:1],5,A6f/3h,3h,3h,3h,
{8}6b/3b-8b[8:1],,A3f/6b-1b[8:1],,A6f/3b,,8x/3x-8b[8:1],,
{8}A3f/6b-1b[8:1],5,A6f/3b-8b[8:1],4,A3f/6b,,1x/6x,,
{32}1b/6b,2x/7x,3x/8x,,,,,,
3b/8b,2x/7x,1x/6x,,,,,,
1b/6b,2x/7x,3x/8x,,,,,,
3xh[32:4]/8xh[32:4],,,,,,,,
{32}8b/3b,7x/2x,6xh[32:2]/1xh[32:2],,,,,,
6b/1b,7x/2x,8xh[32:2]/3xh[32:2],,,,,,
8b/3b,7x/2x,6xh[32:2]/1xh[32:2],,,,,,
1xh[32:4]/6xh[32:4],,,,,,,,
{8}2>6[8:2]/7,,6V41[8:2],,1V35[8:2],,6,,
{8}7-2[8:1],2<7[8:1],7<4[8:1],4q6b[8:2],3h[8:2],,,,
{8}7xb/3xb,,2>5[8:1],,6h[8:8],,B6,,
{8}7x,7x,5x,4x,3xqq8[8:2],,,,
{8},,,,,,8-4[8:1],1,
{16}8/2-5[8:1],,,,2-7[8:1],,7>2[8:1],,2>5[8:1],,5v2[8:1],,6,,7,,
{16}8-3[8:1],,3>8[8:1],,8<2b[8:2],,{24}2x,,,B8,B7,B6,B5,B4,B3,{16}B2f/A2,,,,
{16}6xhb[8:1]/B1,,,5hb[8:1]/E8,,,6hb[8:1]/B1,,,5hb[8:1]/E8,,,3b/7b,,,,
{16}6hb[8:1]/E2,,,5hb[8:1]/E8,,,4hb[8:1]/E2,,,3hb[8:1]/E8,,,6,,6h[16:5],,
{16}8,1,2,3h[16:3],,,1,8,7,6-3-6-3-6[16:15]/2-7-2-7-2[16:15],,,2xbh[16:1]/6xbh[16:1],,,,
{8}A7/A3,,A2/A6,,A3/A7,,A2/A6,7,
{8}1V36[8:2]/8,,6>1[32:6],,8w4[8:1],,8,,
{16}4hx[8:1]/3hx[8:1],,,5h[8:1]/6h[8:1],,,4/3,,
4h[8:2]/5h[8:2],,,,{32},3x/6x,2x/7x,1x/8x,,,,,
{16}2-5[8:1],,7-3[8:1],,2,,7,,
1>5[8:1],,5v2[8:1],,1,,7,,
{16}8-3[8:1],,3>8[8:1],,8<2b[8:2],,{24}2x,,,B8,B7,B6,B5,B4,B3,{16}B2f/A2,,,,
{16}4xhb[8:1]/E8f,,,6hb[8:1]/E2f,,,4hb[8:1]/E8f,,,6hb[8:1]/E2f,,,3b/7b,,,,
{16}6hb[8:1]/E2f,,,5hb[8:1]/E8f,,,4hb[8:1]/E2f,,,3hb[8:1]/E8f,,,7,,7h[16:5],,
{16}1,1,,3h[16:3],,,8,8,,6-3-6-3-6[16:15]/2-7-2-7-2[16:15],,,2xbh[16:1]/6xbh[16:1],,,,
{8}A7/A3,,A2/A6,,A3/A7,,A2/A6,7,
{8}1-7-2-6[8:2]/8,,6-3-5[8:1],,8w4[8:1],,8,,
{16}2xb,4,3,5,4,6,5,7,
{32}4b,3,2,1,8,7,6,5,
{16}4/8,8,8,,
{16}6xh[8:9]/1h[8:2],,,,,,,,
2h[8:2],,,,,,,,
{16},,1b,,8b,,1b,,2b/5bw1b[8:1]
,,,,Cf/B2/A2/B8/A8,,,,
{16}1hx[16:3],8x,,7,,,8h[16:3],1,,2,,,2/7,,,,
{16}6h[16:3],4,,2,,,6h[16:3],4,,2,,,1/7,,,,
{16}3h[16:3],5,,7,,,3h[16:3],5,,7,,,8/2,,,,
{16}B5h[16:3],B1h[16:2],,,,,7xh[16:3],2xh[16:2],
,,,,E3h[16:2]/E2h[16:2]/A2h[16:2]/E7h[16:2]/A7h[16:2]/E8h[16:2]/D2h[16:2]/D8h[16:2],,,,
{4},,,,
E
