&title=Melodiniq
&artist=onoken a.k.a. owl*tree
&first=0.05
&lv_4=14?
&des_4=nakashiro a.k.a. kanarisu
&inote_4=(193){4}E2,,{2}E3,
E4,E5,
E6,E7,
E8,E1,
{16}3h[16:5],{4},{16}4,{8},{16}4h[16:5],{4},{16}5,{8},{16}5h[16:5],
{4},{16}6,{8},{2}6h[16:5],
4h[2:1],6h[2:1],
8h[2:1],2h[8:3],
{24}7bx/8bx,6x/1x,5x/2x,4x<3[8:17]/3x>4[8:17],{6},,,,,,,,,,,,,,,,,{1}6h[2:1],
{24}4bx/3bx,5x/2x,6x/1x,7bx<8[2:3]/8bx>7[2:3],{6},,,,,,,,,,,{8}1/2-5[4:3],
{4},{8}8,{4},7,
{8},6/7-4[2:1],{4},,,5b/4h[4:7],
{8}6,6,,3,{4}3,
{8}7,7,,2,{4}2,5,
4b/5h[4:7],{8}3,3,,6,{4}6,
{8}2,2,,7,{4}7,4,
1b/8h[4:7],{8}3,3,,5,{4}5,
{8}2,2,,6,{4}6,4,
{1}8w4[2:1],
{8}4/3,4/3,5/2,5/2,{16}6,1,7,8,{4}7b,
5/4,3h[8:3],{8},4,{4}5,
5/4,6h[8:3],{8},5,{4}4,
5/4,{8}3,5,4,5,{4}6/3,
{8}5x-3[0.6218##0.1523],3x-7[0.6218##0.1523],7x-2[0.6218##0.1523],2,{2},{4}8/1,
7h[2:1],{8},8,{4}1,
8/1,2h[2:1],{8},1,{4}8,
{16}2bx,1,2,1,3,8,3,8,4,7,4,7,{8}5,6,
1x/2x,1x/2x,8x/3x,8x/3x,{16}7,4,7,4,{4}7b,
8/1-5[0.6218##0.3109],2,1/8-4[0.6218##0.3109],7,
8/1-5[0.6218##0.3109],2,1/8,7,
8/7<4[0.6218##0.3109],6,7/8>3[0.6218##0.3109],1,
8/7,6,{8}E4/A3/B3,E6/A6/B6,{4}E1f/E8/E2,
{8}8h[8:3],{4},{8}7h[8:3],{4},6h[4:1],
{8},3,5/4,1,2,3,{4}5/4,
{8}6h[8:3],{4},{8}7h[8:3],{4},8h[4:1],
2,{8}8/1,2,7,8bx/1bx,{4}6bx/3bx,
{1}Ch[1:2],
{4},,,,,{8}3,
5,1,6,4,8h[8:5],
,,,,,,,{16}2x,3x,
{8}4x,6,2,8,3,7,1,5,
,3,6,2,7,1,6h[4:1],3h[8:1],
{4},{8}6/4,4/6,6/4,5/3,3/5,5/3-5-2-6-1-7-4[4:3],
{1},{2}8/1>8[4:3],
{8}4,{4},{8}8,
,,,4,5,3,6,6h[4:1],
,,,5,4,6,2,2h[4:1],
,,,7,,8,1,2,
{2}2<3[4:3],{8}7,{4},{8}5,
,,,3,5,1,7/8,7h[4:1]/8h[4:1],
,,,6,4,8,1/2,1h[4:1]/2h[4:1],
{2},{8}2,7,1,6,
{16}4x,5,4,5,{8}3,{16}5x,4,5,4,{8}6,{16}4x,5,{8}3,
{16}5x,4,5,4,{8}6,{16}4x,5,4,5,{8}3,{16}5x,4,{8}6,
{16}8x,1,8,1,{8}7,{16}1x,8,1,8,{8}2,{16}8x,1,{8}7,
{16}1x,8,1,8,{8}2,{16}8x,1,8,1,{8}7,{16}1x,8,{8}2,
4/3,4/3,2/5,5/2,6/1,6/1,7/8,8/7,
{16}7,8,6,1,5,2,4,3,5,2,5,2,6,1,6,1,
{1}7b,
(196){32}B8/B1/Cf,B7/B2,B3/B6,B5/B4,{8},,,,,,,4,
5,1,1,7h[16:1]/8h[16:1],7h[16:1]/8h[16:1],{4}7/8,
{8}3,5,1,6,{12}4,7,,{8}3,5,
,3,5,1,{12}7-3[8:1],7x,7x,7x,{6},{8}8b,
7,6,5,4,3,2,1,
4h[16:1]/3h[16:1],4h[16:1]/3h[16:1],4/3,4,7h[16:1]/8h[16:1],7h[16:1]/8h[16:1],{4}7/8,
{8}2,2,5,1,1,5,8,8,
7,3,6,2,5,1,{4}7,
{8}4b,3,5,6,1h[16:1]/2h[16:1],1h[16:1]/2h[16:1],1h[16:1]/2h[16:1],1/2,
{12}7,1,7,2,8,2,{2}8-4[8:1],
{8}5/4,3,4/5,6,8/1,7,8/1,2,
8,7,6,5,{12}4-8[8:1],4x,4x,4x,{6},{8}6bh[8:1],
5,3h[8:1],4,7h[8:1],6,2h[8:1],3,
E4,E6,E2,E8,{12}4,5,4,6,3,6,
{4}B8/B1/E1,B2/B3/E3,B5/B4/E5,B6/B7/E7,
{2}3h[4:3],8h[4:1],
(206){4}6h[8:1]/5h[8:1],4h[8:1]/3h[8:1],7h[8:1]/8h[8:1],1h[8:1]/2h[8:1],
6h[8:1]/5h[8:1],4h[8:1]/3h[8:1],{2}6h[4:1]/E2h[4:1]/B1h[4:1]/B2h[4:1],
{16}1b,2,3,4,5,6,7,8,1b,2,3,4,5,6,7,8,
{8}1x>3[0.5767##0.1369],3x-7[0.5767##0.1369],7x-5[0.5767##0.1369],5x,{2},(209){4}4h[8:1]/3h[8:1],
6h[8:1]/5h[8:1],1h[8:1]/2h[8:1],7h[8:1]/8h[8:1],
4h[8:1]/3h[8:1],5h[8:1]/6h[8:1],{2}3h[4:1]/B8h[4:1]/B7h[4:1]/E8h[4:1],
{16}8b,7,6,5,4,3,2,1,8b,7,6,5,4,3,2,1,
{4}7bh[4:1],5bh[4:1],3bh[4:1],Cf,
(212)1h[8:1]/2h[8:1],7h[8:1]/8h[8:1],4h[8:1]/3h[8:1],6h[8:1]/5h[8:1],
{16}2x,8x,2x,8x,2x,8x,2x,8x,{2}2bx-5[8:1],
(215){8}4,6,3,8,2,7,1,5,
1h[16:1]/7h[16:1],1h[16:1]/7h[16:1],8h[16:1]/2h[16:1],8h[16:1]/2h[16:1],E2/A2/E3,E8/A7/E7,{4}Cf,
(218){8}4/5,3,5/4,6,5/4,3,5/4,6,
{4}4>4[8:5],7,{8}6,6,{4}6,
(221){8}4b,4,6,6,8,8,2,2,
6,6,4,4,{4}2h[4:1],7h[400:99],
(224)8w4[4:1],{2},{4}1,
{2}1w5[8:1],{8}3,6,4,5,
(227)1b,1,7,7,5,5,3,3,
2,2,8,8,6,6,4,4,
(230)6xh[16:1],6xh[16:1],6xh[16:1],6xh[16:1],6xh[16:1],6xh[16:1],6xh[16:1],6xh[16:1],
{16}1b,2,3,4,5,6,7,8,1b,2,3,4,5,6,7,8,
{1}4>5b[0.5087##1.0435]*q5[0.5087##1.0513],
,(236){4}4b/5b,
1/8,{8}7/8,7/8,,1/8,
,2/1,2/1,2/1,{4}2/1,{8}4/3,4/3,
{4}4/3,5/6,{8}6/7,6/7,,3/2,
,8/1,8/1,1/8,8/1,7/2,7/2,7/2,
{4}7b/2b,7/8,{8}2/1,1/2,,3/4,
3/4,4/3,{4}4/3,{8}5/6,5/6,6/5,5/6,
{4}6/5,{8}5bx/4bx,5bx/4bx,4bx/5bx,6bx/3bx,3bx/6bx,6bx/3bqq7-5[8:5],
{1},{2}Cf,
{8}2b,7,1,8,
4h[1:1],5,7h[16:1],7h[16:1],6,6,6,6-1[8:1],
{2},{8}7b,2,5h[1:1],4,
4,4,3,3,3,2,,,,4,
6h[4:1],5,3h[4:1],4,6h[4:1],4,
3h[4:1],5,7h[4:1],4,2h[4:1],5,7h[8:1],2,
4/5,4/5,4/5,6/3,6/3,6/3,7x/2x,7x/2x,
3,5,1,{16}8x,7x,6x,5x,{8},3,8,
(240){4},{32}B8/B1/Cf,B7/B2,B6/B3,B5/B4,{8},,,8b/1b,7,
6-2[8:1],5,,,,4,3,2,
{4}8-6[0.125##0.125],2-4[0.125##0.125],{16}1x,8x,{8}7x,{4}1-5[0.125##0.125],
7-5[0.125##0.125],1-3[0.125##0.125],{16}8x,7x,{8}6x,{16}2-6[0.125##0.125],{8},{16}Cf,
{2},{12}4,5,3,6b,{6},{8}6/4,
4,5/3,5,6/4,4,5/3,5,
{16}E1,E2,E3,E4,E5,E6,E7,E8,E1,E2,E3,E4,{4}E5,
{2}8w4[8:1],1w5[8:1],
{8}7,7,5,5,3,3,1,1,
8,8,6,6,3/4,3/4,{4}2b/5b,
{8}8,{24}2x,3x,4xh[8:1],{8},7,{24}2x,3x,{12}4xh[8:1],,{8}8,{24}2x,3x,4xh[8:1],
{8},7,{24}2x,3x,{6}4xh[8:1],{12}6x,3x,5x,4bx,{6},{8}4,
4,6,6,8,8,2,2,
{12}3bx,5x,3x,6x,4x,{24}6x,3bx,{12},5x,3x,6x,4x,6x,
1,7x,{24}6x,5xh[8:1],{8},2,{24}7x,6x,{12}5xh[8:1],,{8}1,{24}7x,6x,5xh[8:1],
{8},2,{24}7x,6x,5x,4xw8[8:1],{12},,,,,,,{4}6h[8:1]/5h[8:1],
4h[8:1]/3h[8:1],6h[8:1]/5h[8:1],4h[8:1]/3h[8:1],
{8}1/8,8/1,8/1,1/8,{2}1-4[8:1]/8-5[8:1],
{16}4x,3,{8}2,{16}5x,6,{8}7,{16}4x,3,{8}2,{16}5x,6,{8}7,
{16}1x,2,{8}3,{16}8x,7,{8}6,{16}1x,2,{8}3,{16}8x,7,{8}6,
{1}1>8[2:3],
,{16}4x,
5x,4x,5x,4x,5x,4x,5x,3x,6x,3x,6,3x,6x,3x,6x,
{24}2x,3x,4x,7x,6x,5x,2x,3x,4x,7x,6x,5x,2x,3x,4x,Cf,{3},{1}8x<4pp4b[8:21]*>4qq4[8:21],
,,{4}7h[4:3],
{2},{4}2h[4:3],
{2},4h[2:3],
,,,(193){8}E7,
E6,E4,E3,
{4},{8}3,2,(190)1,8,7,6,
(170){4}5,(120)4x,{32}B7,C,{16}B2,
E
