&title=ナイトメアダイアリー
&artist=上海アリス幻樂団
&first=-0.435
&des=虚ろな悪夢
&des_5= 虚ろな悪夢
&lv_5=13+
&inote_5=(172){4},,,,,,,,{2}2-5[8:1],
7-4[8:1],
1-5[8:1],{4}8h[8:1]/4h[8:1],6/2,
{2}4/3-8[8:1],5/6-1[8:1],
{4}8h[8:1]/2-5[8:1],1,1h[8:1]/7-4[8:1],8,
5h[8:1]/3-8[8:1],6h[8:1],1h[8:1]/7-4[8:1],2h[8:1],
3h[8:1]/5-8[8:1],2h[8:1],{8}8/1,7/2,{4}3/6,
5h[8:1]/4-8[8:1],7h[8:1],2h[8:1]/6-1[8:1],4h[8:1],
8h[8:1]/3-6[8:1],1h[8:1],{8}7-4[8:1],8,1,2,
{4}3>8[8:1],{8}4,5,{4}6>3[8:1],{8}7,8,
{4}1<6[8:1],{8}2,3,4-8[8:1],5,{4}4,
7>2[8:1],{8}6,5,{4}4<7[8:1],{8}3,2,
1>4[8:1],8,7,6,5<8[8:1],4,3,2,
1,8/2>5[8:1],,2b/7-3[16:3],,7b/1-5[8:1],,1b,
6,7<4[8:1],,7b/2-6[8:1],,2b/8-4[8:1],,8b,
1,2-5[8:1],,2b/1-6[8:1],,3b/1-4[8:1],,1b,
6,7,{4}8h[2:1],3,2,
{2}1>4[8:1]/5<8[8:1],{4}3h[8:1]/7-4[8:1],2h[8:1],
{2}1-4[8:1]/5<8[8:1],{16}7-4[8:1],,,3,,,{8}2,
{2}1-5[8:1]/5<8[8:1],{4}3h[8:1]/7-4[8:1],2h[8:1],
{2}5h[4:1]/1<6[8:1],{8}5,4,6,5,
{4}7-4[8:1],8>3[8:1],5h[8:1],4h[8:1]/6h[8:1],
{2}7-4[8:1]/3>8[8:1],{8}1h[8:1],5h[8:1],2h[8:1],6h[8:1],
{4}3<6[8:1],7-4[8:1],{16}1>4[8:1],,,5,,,{8}7,
8h[8:1],5,7h[8:1],4,6>3[8:1],3,,,{4}1>4[8:1]/5<8[8:1],
5/1,{8}7-4[8:1],4,3,2,
{4}1-4[8:1]/5<8[8:1],1/5-2[8:1],{16}7-4[8:1],,,3,,,{8}2,
{4}1-5[8:1]/5<8[8:1],5/1,{8}7-4[8:1],4,3,2,
{2}5h[4:1]/1<6[8:1],{8}5,4,6,5,
{4}7<4[8:1],7/8>3[8:1],5h[8:1],6h[8:1]/4h[8:1],
7<4[8:1]/3>8[8:1],7/3-7[8:1],{8}1,1,2,6,
{4}7-4[8:1]/3-8[8:1],7/3,{8}1/5,1,6/2,6,
3-7[8:1],7,6-1[8:1],2,4-8[8:1],8,{4}7-3[8:1],
{1}7<4[4:5]/1>4[4:5],
,2<7[4:5],
{2}4,5,
6>3[2:1],1-5[2:1],
8h[2:1],7>2[16:7],
{1}3<6[2:3],
{4},,,,3/7<4[2:1],
3,3,3,
3/5<8[2:1],3,3,3,
8/1>4[2:1],8,8,8,
8/5>2[2:1],8,8,8,
1-5[4:1],8,7-3[4:1],6,
5-1[4:1],4,3-7[4:1],2,
1h[8:1],1h[8:1],{8}1,1,1,1,
2/8,2/8,3/7,3/7,{16}4,5,6,7,8,1,2,3,
{8}4h[8:1],5,1h[8:1],7,4h[8:1],6,1h[8:1],8,
2h[8:1],3,8h[8:1],6,2h[8:1],4,8h[8:1],7,
1/6,2,3/7,6,5/3,2,4/6,8,
1h[8:1],3h[8:1],5h[8:1],7h[8:1],1h[8:1],6h[8:1],4,4,
6h[8:1],5,8h[8:1],2,5h[8:1],3,8h[8:1],1,
7h[8:1],6,1h[8:1],3,7h[8:1],5,1h[8:1],2,
8/3,7,6/2,3,4/6,7,5/3,1,
8h[8:1],6h[8:1],4h[8:1],2h[8:1],8h[8:1],3h[8:1],{4}5h[4:1],
{8}2-5[8:1],5-1[8:1],6,8,7-4[8:1],4-8[8:1],3,1,
2-6[8:1],6-3[8:1],7,8,7-3[8:1],3-6[8:1],2,1,
2>5[8:1],5-1[8:1],6,8,7<4[8:1],4-8[8:1],3,1,
2h[8:1],8h[8:1],4h[8:1],6h[8:1],8h[8:1],4h[8:1],2h[8:1],6h[8:1],
1<6[8:1],5,1>4[8:1],5,1-5[8:1],5,1,6,
7>2[8:1],3,7<4[8:1],3,7-3[8:1],3,7,2,
5/1>4[8:1],5,6/1-5[8:1],6,7/1-4[8:1],7,1/8,8,
1>4[16:3],3<6[16:3],5<8[16:3],7>2[16:3],,,,,{4}2>5[8:1]/5<8[8:1],
2b/5b,{8}7/4,{16}3,6,{8}1,5,
{4}8>3[8:1]/4<7[8:1],4b/8-4[8:1],{16}4,,,3,,,{8}2,
{4}1>4[8:1]/5-1[8:1],5b/1<6[8:1],{8}4,3,6/2,1/5,
{2}4<7[8:1]/8>3[8:1],{8}8/4,7,1/6,2,
{4}8/3<6[8:1],7-4[8:1],{8}8,1,5/2,6,
{2}7-4[8:1]/3<6[8:1],{8}8-5[8:1],1,2,3,
{4}4>1[8:1]/6<1[8:1],6/4,{8}2h[8:1],5h[8:1],3h[8:1],8h[8:1],
2-6[8:1],1,7-4[8:1],8,{2}1-5[8:1],
{4}7<4[8:1]/4>1[8:1],7b/4b,{8}2/5,{16}6,3,{8}8,4,
{4}1<6[8:1]/5>2[8:1],5b/1-5[8:1],{16}5,,,6,,,{8}7,
{4}8<5[8:1]/4-8[8:1],4b/8>3[8:1],{8}5,6,7/3,8/4,
{2}5>2[8:1]/1<6[8:1],{8}1/5,2,3/8,7,
{4}1/6>3[8:1],2-5[8:1],{8}1,8,4/7,3,
{2}2-5[8:1]/6>3[8:1],{8}1-4[8:1],8,7,6,
{4}5<8[8:1]/3>8[8:1],3/5,{16}7h[16:3],,,5h[16:3],,,{8}4,
{16}2,3,4,5,6,7,8,1,{32}7/2,6,5,4,3,2,1,8,{4}7b/3b,
{8}5/1,{16}2-5[8:1],4,{8}3,2,1,{16}8-4[8:1],4,{8}7,8,
1-5[8:1],{16}2,6,{4}1<6[8:1],{16}1/3,,,2,{8}4<7[8:1],8,
{4}4>1[8:1]/1-5[8:1],4-8[8:1],{8}2,2,7,7,
{2}1-5[8:1]/8-4[8:1],{16}2,4,{8}3,{16}7,5,{8}6,
{4}1>4[8:1]/5<8[8:1],5/1-6[8:1],{8}5-8[8:1],4,3,2,
{4}7<4[8:1]/3>8[8:1],3/7-3[8:1],{8}4-1[8:1],5,6,7,
{4}1>4[8:1]/6<1[8:1],6/1-5[8:1],{8}3,3,2,6,
1h[8:1],4h[8:1],2h[8:1],5h[8:1],3<6[8:1],7,,,4/8,
{16}7-4[8:1],5,{8}6,7,8,{16}1-5[8:1],5,{8}2,1,
8-4[8:1],{16}7,3,{4}8>3[8:1],{16}8/6,,,7,{8}5>2[8:1],1,
{4}5<8[8:1]/8-4[8:1],5-1[8:1],{8}7,7,2,2,
{2}8-4[8:1]/1-5[8:1],{16}7,5,{8}6,{16}2,4,{8}3,
{4}8<5[8:1]/4>1[8:1],4/8-3[8:1],{8}4-1[8:1],5,6,7,
{4}2>5[8:1]/6<1[8:1],6/2-6[8:1],{8}5-8[8:1],4,3,2,
{4}8<5[8:1]/3>8[8:1],3/8-4[8:1],{16}6,,,6,,,{8}7,
{32}8b,7,6,5,4,3,2,1,8,7,6,5,4,3,2,1,{2}8-5[8:1]/4-1[8:1],
{1}3/7,
E
