&title=1212。
&artist=A4。
&first=-0.913
&des=1308。
&lv_5=13+
&des_5=1308。
&inote_5=
(122){4},,6h[4:1],{8}E3,4,
{4}5h[4:1],{12}B1,{24}5,3,,,{4}4h[4:1],{8}B7,5,
{4}6h[4:1],{12}B1,{24}5,4,,,{4}6h[4:1],{8}E3,4,
{4}5h[4:1],{12}B1,{24}5,3,,,{4}4h[4:1],{8}B7,5,
{4}6h[4:1],{12}B1,{24}5,4,,,{8}3/7<4[4:1],2,1,2,
8<4[4:1],1,2,1,2,3,1/4,{16}7,8,
{8}6-4[12:1],E8/B7,,,6/2>5[4:1],7,8,7,
1>5[4:1],8,7,8,7,6,5/8,{16}2,1,
{2}C,{8}5/3,{16}6,5,{8}7-4[12:1],7,
3-6[12:1],2,1,2,3/5h[8:1],4,{12}5/3,{24}6V41[6:1],5,,5,
{3}7h[24:5],{24}6,8,,8,{8}7<4[8:1],7,1>4-8[24:5],1,
{3}6h[24:5],{24}7,5,,6,{8}4,3/4,5,5/6,
8/2q4[4:1],3/7,{4}6h[24:5],{24},,5,3,,3,{12}4,{24}4,2,,,{12}6/4,
7x,{24},7x,,,3,5,,5,{8}4h[8:1],2,8qq8[4:1],6,
{3}1h[24:5],{24}2,1,,3,{12}4,{24}6,5,,,{8}8/7-3-5-8[4:1],6/1,
2h[24:5],,,1,2/8<5[8:1],7,3qq1[8:1],2,
{2}4x<6[12:1]/3x<6[12:1],{8}1b,{24}6,,5,{8}6h[4:1],8,
{12}5,{24}7,8h[8:1],,,{8}E7,E6,E5/B4,{24}2,,1,{8}3h[8:1],{24}4,,2,
{8}1h[4:1],3,E3,E4,E5/B5,{24}1v6[8:1],,8,{8}2,3,
5v2[8:1],4,3,4,1x-7[8:1],5x-1[8:1],1x-3[12:1],5x,
{4}6x,6>3[12:1]/5>3[12:1],{8},,3<6[12:1]/4<6[12:1],2,
,,6>2[8:1]/5>2[8:1],2<6[8:1],{4}6x,4x-1[12:1]*-7[12:1],
4,{8}6/2<2V86[4:3],4,{2}6h[4:1],
6V42[4:1],C,
{48},,,,,2bx/8bx,,,,,,,{8}7/3,6/4,5h[8:1]/1bv6[8:1],2,{4}1/4<8[8:1],
{8}1,2>5[8:1],{12}1,{24}8,2,,,{8}1-6[8:1],6x-4-8[16:3],3,2,
{4}1h[8:1],{8}4/2-6[8:1],1,2bx/5<8[8:1],4,{4}3-1[8:1]/5-1[8:1],
3/5-7-3[16:3],{8}8,1,{4}2b<5[8:1],E2/D2/7bx>4[0.4918##0.2459],
E8/D8/2bx<5[8:1],D2/E2/7bx>6[4:1],{2}Cf/B1/B8,
{8},7h[8:1]/8h[8:1],{16},7h[8:1]/8h[8:1],,,{4}6b/1>3-5[16:3],{8}7,7,
,2h[8:1]/1h[8:1],{16},2h[8:1]/1h[8:1],,,{4}3b/8-6>4[16:3],{8}2,2,
,1h[8:1]/5h[8:1],{16},1h[8:1]/5h[8:1],,,{2}2bxpp5[8:3]/6bxpp1[8:3],
{8},,8,4,3/5,1>4[8:1],5,{16}1/6,6,
,7,5<8[8:1],6,{8}4,{16}5/3,3,,2,5,3,6,4,7,7h[16:3],
,6,{8}6,{16}5,7,4,5h[8:1],,3,7,2,{8}6h[8:1],{16}5,7,
4,5,2,6,4,7,1,8,{8}2h[8:1],4,5-1[8:1],7h[8:1],
,,{4}3<6[12:1]/4<6[12:1],{8},,6>3[12:1]/5>3[12:1],7,
,,3<7[8:1]/4<7[8:1],7>3[8:1],{4}3x,5x-2[8:1]*-8[8:1],
5,{8}3/7>7V13[4:3],5,{2}3h[4:1],
3V57[4:1],{8}C,{16}E3,B3,{8}B6,B4,
{48}B5,,,,,7bx/1bx,,,,,,,{8}2/6,3/5,6/2b-6[8:1],7,{4}2/8-5[8:1]*-3[8:1],
8,{8}4,2/5,3-6-1-4[16:5],7/4,{4}8h[4:1],
{8},6,8/4>8[4:1],5/7,{4}8<4[4:1],4pp4[4:1]*qq4[4:1],
{8},,,2/6,{4}7b>4[8:1],E8/D8/2bx<5[8:1],
E2/D2/7bx>4[8:1],D8/E8/2bx<3[4:1],{2}Cf/B8/B1,
{8},3h[8:1]/4h[8:1],{16},3h[8:1]/4h[8:1],,,{4}2b/5<7-1[16:3],{8}3,3,
,6h[8:1]/5h[8:1],{16},6h[8:1]/5h[8:1],,,{4}7b/4-2<8[16:3],{8}6,6,
,5h[8:1]/1h[8:1],{16},5h[8:1]/1h[8:1],,,{2}6bxqq3[8:3]/2bxqq7[8:3],
{4},,3/6h[4:1],5h[4:1],
4h[4:1],3h[4:1],{12}6,5,4,5<7[12:1],4,3,
{4}4h[8:1],{8}5/7,4/6,{4}3/5<8[4:1],2,
1>4[4:1],6,{12}6,5,4,5<7[12:1],4,3,
{4}4h[8:1],{8}5/6,5/4,{2}3-1[8:1]/4v1[8:1],
7-5[8:1]/8v5[8:1],{12}3,4,5,4>2[12:1],5,6,
{4}5h[8:1],{8}2>7<2[1:1],3,{2}2h[4:1],
8h[4:1],{4}C,{8}1/8,2,
{24}3/4,,,,,5,{8}4,6/5,{4}4/7bxh[4:1],Ch[4:1],
E7h[4:1],E3h[4:3],{12}E8/E2,E7,E6,D8/E4,D7,D6,
{4}C,{8}2,3,{4}E6/E7h[2:3]/4x-1[8:1],E8,
E6/1x-4[8:1],E8,{12}E6/E4,E3,E2,D4/E8,D3,D2,
{4}C,{8}7,6,{4}E2/E3h[2:3]/5x-8[8:1],E4,
E2/8x-5[8:1],E4,{12}E8/E2,E7,E6,E4/D8,D7,D6,
{4}C,{8}7<2>7[1:1],6,{2}7h[4:1],
1h[4:1],{4}C,{8}5/6,5/4,
{48}4/3,,,,,2bx/8bx,,,,,,,{8}7/3,6/4,5h[8:1]/1bv6[8:1],2,1/4<8[8:1],3,
1,2>5[8:1],{12}1/3,{24}6,2,,,{8}1-6[8:1],6x-4-8[16:3],3,2,
{4}1h[8:1],{8}4/6-2[8:1],7,6bx/1>4[8:1],8,7-5[8:1]/1-5[8:1],6,
{4}7/1V37[16:3],{8}4,5,{4}6b>1b[8:1],E6/D6/3bx<8b[0.4918##0.2459],
E4/D4/6bx>1b[8:1],D6/E6/3bx<2b[4:1],{2}Cf/B5/B4,
{8},3h[8:1]/4h[8:1],{16},3h[8:1]/4h[8:1],,,{4}2b/5<7v1[16:3],{8}3,3,
,6h[8:1]/5h[8:1],{16},6h[8:1]/5h[8:1],,,{4}7b/4>2qq8[16:3],{8}6,6,
,5h[8:1]/1h[8:1],{16},7h[8:1]/3h[8:1],{48},,,,,,{12}8b/E3f,8b/E4,{6}8b/E5,{12}1b/E7f,1b/E6,
{24}1b/E5,{48},,,,,,,,7/2,6/3,{4}4>5[0.4918##1.5984]/5<4[0.4918##1.5984],(244){64}5bx/4bx,E5f,E6/E4,B6/B3,C,B7/B2,E8/E2,E1,(122){8}A8/A1,{16},,,,,,,,,,,,,6,
{8}5,4/7,6/5,
{16}3,4,,6/2-8[12:1],,3,4,2,,4,{8}1,5/2,3/4,
{16}6,5-7[12:1],,4,,5/3,,,,7/8>3[8:1],{8}5,{16},8/7,,6,
,2/1,{48},,4,,,,,,,8/7,,,{16}6,5/4,,6,{8}5,4/7,5/6,
{16}3,4-2[12:1],,5,,6/4,,7,,3,{8}4,5/2,3/4,
{16}5,4,,3/7-1[12:1],,6,5,7,,4,{8}8,1/6,7/8,
{16}2,1,,7/3,,4/6,{8}1,{16},8b/7,{48},6b/1,,,,5bx/Cf,,,,,,,,1b/2,,,,3b/8,
,,,{16}4bx/Cf,
E
