&title=花嵐、空に溶けて
&artist=DJ Raisei/Setca./咲良ゆの
&first=0
&lv_1=1
&des_1=
&inote_1=
(125){4},
E
&lv_4=1
&des_4=
&inote_4=
(125){4},
E
&lv_5=14+
&des_5=5oSf6LCi5L2g5ri4546p5oiR55qE6LCx6Z2i
&inote_5=
(156){4},{1},{4},,{16},3,
,2,
,1pp5[4:5],,,,6h[8:7]/A1,,B1,,C,,B4,,A3,,D3,
,E2,,B1,,C,,6x,,7x,,,,6,,7,
,8qq4[4:5],,,,3h[8:7]/A8,,B8,,C,,B5,,A6,,D7,
,E8,,B8,,C,,3x,,2x,,,,5,,3,
,2-5[8:1],,,,2,,6,,4,,7,,6/4,,3,
,5/2,,1,,7/8,,6,,7/5-1[8:1],,,,5/2,,3,
,4>1[8:1],,,,4/7,,8,,2/6,,1,,8<5[8:1],,1>4[8:1],
,8-4[8:1],,1-5[8:1],,8w4[2:1],,1,,8x,{8},,,,,,,,,,,{4}3b,
{16}8/5,7,6,5/1,8,7h,5,8,6-1[8:1],1-4[8:1],7,2,
6h,1-6[8:1],{8},{16}1x/3-5[8:1],1,,3x,3,{8},{16}6,,7/4,,8/3,
1x,2,{8}1,{16}3x,4,{8}3,{16}6x,5,6,3,5,4,7,6,
{32}5/1,2,3,4,{8},{16}8x/7x,{32}8/7,1/6,{8}2/5,{16}4b,3,2/6,7,8/3,2-8[8:1],1/5,6,
7,2-5[8:1],,6,6,2-7[8:1],,6,6,2/5x-1[8:1],,1,1,5-7[8:1],,2,
2,5-8[8:1],,3,3,5,,3,,7h[16:3],{8},{16}5h[16:3],3x-8[8:1],,3,
,3-7[8:1],,4,,3-5[8:1],,8,,3,,7,6,5,4,{32}1,2,
3,4,{16}5/6bh[4:3],,,,,,,,,,,,4,,4,
,4qq8[2:1],,,,4,,6,,6pp1[8:3],,,,6,,,,2,
,3,,4,,5,,6,,,,3qq7[8:3],,2/6,
,3,,,,6q1[8:3],,5,,6,,4,,3,,4,
,3,5,3,,7-4[8:1],,4,,7,,,,3,,2,
,1h[16:3],{8},{16}5,1,,6,,6,,,,7pp4[8:3],,,,7/1,
2,3,{8},{16}3,3,,3,,,,5pp8[8:3],,6/3,
,5,,,,1>4[8:1],,1,,1,,6,,6,,6,
,4,5,4,,8w4[2:1],,2/6,,8,,,,,,,,,,,,,,,,,,,,1b-5b[8:1],
,3/7,
,1/8,,,,8,7,6,5,4/3qq8[16:5],,,,3,,,,7<4[8:1],
,,,7-3[8:1],,1,2,3/7,,,,4/8,3,2/6,
1,8/4-7[8:1],,,,4/3,,2-5[8:1],,7,,2/8-4[8:1],,7-3[8:1],,8>3[8:1],
,7<4[8:1],,8,,7,,{32}3x,2,1,8/5,{16},,,{8}7,4/6,
5/3-8[8:1],6,3/7-4[8:1],{16}6,1x,{8}7/1-5[8:1],2,1/6-8[8:1],{16}7,4x,
{8}6/4-1[8:1],3,4/7-3[8:1],{16}6,2x,{8}7/2-5[8:1],4,{16}2,8x-4[8:1],,7,
,8/1,,2,,6/4-8[8:1],,7,,4/6,,5,,1,,2/6,
,{32}7b/1b,6,5,4,{16},{32}2b/8b,3,4,5,{16},{32}2b,3,4,5,{16}6/1xh[2:1],,,,,,,,6q1[4:3],
,,,4x,,4x,,3x,,2-5[8:1],,3x,,2x,
,,,8b/4b,,,,7xp4[2:1],1x,7x,,2x,,3-8[8:1],,2x,
,3x,,,,5b/1b,,2/6,,3,,6/4-1[8:1],,7,,4,
,,,8h[16:3],,,,2,8,1/7,,6,,8/2,,4,
{12},{24}7b,6,5,4,8,7,6,5,1,8,7,6,4,3,2,1,8,7,6,5,8,7,
{16}6,3/5,4,5,6/4,5,6,5/7,6,5x/7-2[8:1],,,,7x,{24},,,,,2b/8b,
7x/3x,4,5,6,7,8,4,5,6,7,8b/5b,1x/4x,3,2,1,8,7,6,5,4,3,
2,5b/1x,6,7,8,1,2,3,1b/4,2,3,4,5,8b,7,6,5,2b,3,4,5,7b,6,5,
4,1xh[24:17],{3},,{8}5x<8b[8:1],5x,
{24}5x/1x,2,3,4,{48},,,,,,,{16}1/8-6-4[8:1],,6/4v7[8:1],,8/2-6[8:1],,3,,2,,8-6[8:1],
,5-1[8:1],,8,5,5b,,6x,,1x,,,,7/1pp5[4:1],,6,
,8/1,,,,7,8,6,,1x/5x,,3,4,2,,1x/5x,
,7,5,6,3,5,4-8[8:1],6,5,7,{8}4x,{16},1/7x<4b[8:1],,2,
,7/8,,,,8/1-3-5[8:1],,3/5v2[8:1],,1/7-3[8:1],,6,,7,,1-3[8:1],
,4-8[8:1],,1,4,4b,,3x,,8x,,,,2/8qq4[4:1],,3,
,1/8,,,,2,1x,3,,4x/8x,,6,5,7,,8x/4x,
,3,5,4,6,4-8[8:1],5,3,4,2x,,,,7b/1b,,6b/5b,
,4b/2b,,,,7,8,7,8,1b/6b,3,4,2,5b/1b,7,8,
6,5b/1b,2,4,3,5,4,6,5,7b/4b,,,,8-5[8:1]/1-4[8:1],,6x/3x,
,1x/8x,{8}Cf/E7/B7/B6/B2/B3/E3,{16},6,5,7,4,8b/3b,7,4,6,8b/3b,2,7,
1,6b/2b,7,5,6,4,5,3,4,2b/5b,,,,8-3[8:1],,6/4,
,5/8b,,,,6,4,6,,3,4,3,,1-6[8:1],,3/5,
,4/1b,,4,,3bx<6b[8:1]/7bx>2b[8:1],,1bx/5bx,,7bx/3bx,,,,2/6,,7/3,
,{32}6b/2b,3/7,8/4,1/5,{8},{16}3/7,,1/6,,7bh[16:3],{8},8b,{16}7b,8b,
,{32}1b,2,{16}3,{32}7b,6,{16}5,{32}2b,3,4,5,6,7,8,1,2/5b,E6,{8}E7,{32}2b,E3,{16}B3,,{32}7b,E7,
{16}B6,{32}1b/4bxh[4:3],E1,{8}B8f,{16},,,,,,,,,6x,,6x,
,6xh[4:1],,,,4,,5,,3,,5,,2,,4,
,3,,5,,4,,6,,4h[4:1],,,,7,,4,
,5h[4:1],,,,2h[8:1],,3h[8:1],,4h[8:1],,5h[8:1],,6h[8:1],,7h[8:1],
,8h[8:1],,1h[8:1],,2h[8:1],,3h[8:1],,4,,,,6,,7,
,8h[4:1],,,,4,,7/3,,2,,1/5,,6,,7/3,
,5,,3/7,,2,,4/1,,3h[4:1]/5h[4:1],,,,,,6,
5,7,3,4,2,7,8,6,2,1,3,6,5,7,2,1,
{12}3,{24}7,6,5,4b,3,2,1,8b,7,6,5h[12:7],4b,3,2,1,8,7,6,,4,3,2,
1,8,{12}7x,{4},,,{16},,{48},{16}8bxh[4:1]/Cf,
,,,B3,,E7,,E2,,B5,,B3,,B7,
,E3,B2,B1,,E7/E1,,B3/E8,,Cf/B3/B6,,,,,,,,1bxh[32:5]/Cf,
,,,7bxh[16:3]/Cf,,,,,,,,3bxh[4:1]/Cf,,,,E6f/B6/B5/A6/D6/A5,
,7x,,E3f/B2/B3/A2/A3,,1x,,8bxw4b[8:1],,2b/6b,,8b,,,,Cf,
,,,2b/4b,5,4,5,3,4,2,2,5,6,4,
7,{32}1-5b[8:1],2,3,4,{16}1>4b[8:1],,5x/1<6b[8:1],,1x,,1x,,,,4,5,3,
5,2b/6b,7,1,8,2,1,3,4,2b/5b,6,5,7,8b/4b,2,1,
3,{32}8x/4b,7,{16}6,8b,,{32}1x,2,{16}3,8b,,1xh[8:1],,,,4b-8b[8:1]/3b-1b[8:1],,6/8,
,4b/3b,,,,7b,5,6,3,5b,4,7,8,6b,7,5,
6,3b,4,2,5,3b,4,2,8,{32}1b,2,3,4,{8},{16}6,5,7,
4,5,4,6,3,2b/5b,7,8,6,1b/5b,3,4,2,1b/5b,7,8,
6,{32}5b/1b,2,3,4,1b,8,7,6,1b-5b[8:1],2,3,4,1b,8,7,6,{16}5/1b,,,,6/4,,3/7,
,{32}8b/2bxh[4:1],7,6,5,{8},{16}7,,6,,5xh[32:3],,{32}1b,2,3,4,6b,7,8,1,4b,5x,
6x,7x,{16}8x/4x,,5/6,,8/2,{12},{24}5,4,5,{12}4,{48},{16}3/6,,7b,6,8,
1,4,3,6,{32}5,4,{16}2,2,7,7,{32}1,2,{16}3,5,5,{32}2,3,{16}4,6,
,{32}8/4h,7/3h,{16}6/2h,4x/8xh,,{32}5/1h,6/2h,{16}7/3h,1/5xh,,{32}2b,3,4,5,8b,1h,2h,3h,7b,8,1,2,5b,6h,
7h,8h,1b,8x/2h,7x/3h,6x/4h,
E
&lv_6=1
&des_6=
&inote_6=
(125){4},
E
