&title=Echoes
&artist=Aiobahn
&first=0
&des=ちゃつゆうどん
&lv_5=13+
&des_5=ちゃつゆうどん
&inote_5=
(155){4},,,,,,,,{1}4>3>2<1<8[4:3],
5<6<7>8>1[4:3],
3qq4<5[1:1],
5<6<7>8>1>2[4:3],
5-8<7<6[4:3],
4-1>2>3[4:3],
8q5p8<7<6>5[4:7],
{4},,,,2,
{8}2,2,2/6,7,{4}8/1,
1/8-5[8:1],1-4[8:1],8<6[8:1],1,
8/1,{8}1,1,8/1,2,{4}7,
7/2-4[8:1],7-5[8:1],2>4[8:1],7,
7/2,{8}7,7,2/7,6,{4}3,
5-8[8:1],4-1[8:1],5<7[8:1],4,
5/4,{8}4,4,{4}5/4>6[1:1],5x,
{1}Cfh[1:1],
{8},,,7x,{4}7x,8/1,
2-4[8:1],8-2[8:1],6-8[8:1],4,
{8}5/4,,,6x,{4}6x,4/5,
2>4[8:1],8>2[8:1],6<8[8:1],4,
5/4,{8}3,3,3/5,2,1/6,1,
{4}1/7,{8}6,6,6/4,7,8/3,8,
{16}8,2,7,1,6,3,5,4,7,2,6,3,5,4,6,3,
7,1,8,2,6,3,5,4,{24}6,7,8,1,2,3,{4}4/Cf,
D3/A3/5bxv6-8[4:1],{8}1/5,2,{4}3-6[8:1],3/5-8[8:1],
2/5-2[8:1],7/5pp7[8:1],3/5qq3[8:1],8x/5,
A2/D3/8bv7-5[4:1],{8}8/4,3,{4}2-7[8:1],2/8-5[8:1],
3/8-3[8:1],6/8qq6[8:1],2/8pp2[8:1],5x/8,
A6/D7/4bxv3-1[4:1],{8}4/5,6,{4}7-2[8:1],7/1-4[8:1],
6/1-6[8:1],3/1pp3[8:1],7/1qq7[8:1],4x/1>4[8:1]*q5[8:1],
1b,6-1[8:1]*-8[8:1],6b,2,
{24}5,4,5,4,{48},{16}6,3,7,2,8,{4}1-5[8:1],1,
D3/A2/8bx-5-7-1[4:1],{8}4,3,{4}2-6[8:1],2/8-4[8:1],
3/8-2[8:1],6/8qq6[8:1],2/8-4[8:1]*-3[8:1],8,
A2/D3/5b-8-6-1[4:1],{8}2,3,{4}4-2[8:1],4/1-5[8:1],
3/1-3[8:1],7/1-7[8:1],3/1-5[8:1]*-4[8:1],1b,
D7/A6/3bx-8-2-4[4:1],{8}7,6,{4}5-1[8:1],5/2-6[8:1],
2/8-4[8:1],8/5x-1[8:1],5<8[8:1],5-1[8:1]*-2[8:1],
5b,8bxV24[4:1]/3bx-1-7[4:1],{2}8/3,
5<4[4:3],C,
{1}D5f,
,5p4[2:1],
{2}2h[4:1],{4}3,4,
5/4,{8}6,6,,7,{4}7,
6/5,{8}6/4,{16}5,4,{8}5,3,{4}2/4,
4/5,{8}3,3,,2,{4}2,
3/4,{8}3/5,{16}4,5,{8}4,6,{4}7/5,
6/5,{8}7/4,{16}6,5,{8}6,6/4,{4}5/3,
3,{8}2/5,{16}3,4,{8}3,3/5,{4}6/4,
6/5,{8}7/4,{16}6,5,{8}6,7/4,{4}6/5,
5/4,{8}2/5,{16}3,4,{8}3,5/2,{4}4/3,
{8}6,6,7/4,{16}6,5,{8}6,6/5,4/5,4/5,
3,3,2/5,{16}3,4,{8}3,3/4,4/5,5/4,
{1}Cfh[1:2]/1-5<4[4:7],
{2},,,7/1,
8p3[8:1]*-5[8:1],2xh[16:1],
1-4[8:1]*q6[8:1],7xh[16:1],
5-8[8:1]*q2[8:1],3xh[16:1],
{4}6/4,6/4,6/3h[16:1],2/6,
1/5,1/5,1/6h[16:1],7/1,
{16}1,8,1,8,2,7,2,7,3,6,3,6,4,5,4,5,
{2}4-1b[8:1]/5-8[8:1],{32}2x,3,4,5,6,7,8,1,{4}2b,
{24}8x,7,6,5,4,3,8x,1,2,3,4,5,{8}6-2[8:1],2-6[8:1],,,8x-4[8:1],
4x-8[8:1],8x-5[8:1],1,{4}1-4[8:1]*v6[8:1],1b,
{24}1x,2,3,4,5,6,1x,8,7,6,5,4,{8}3-7[8:1],7-3[8:1],,,1x-5[8:1],
5x-1[8:1],1x-4[8:1],8,{4}8-5[8:1]*v3[8:1],8b,
{24}6x,7,8,1,2,3,6x,7,8,1,2,3,{4}4p8[8:1]*-1[8:1],B4/E4,
{8}7-4[8:1],4-7[8:1],7-1[8:1],3,{2}3>2<1<8[8:1],
{24}8x,7,6,5,4,3,1x,8,7,6,5,4,{8}3-8[8:1],8-3[8:1],{4}3>8[8:1],
{8}5,5,5-8[8:1],5-2[8:1],5x-1<5[4:1],5x,{4}5bx>2[8:1],
{8}1x,1b,{24}1x,8,7,6,5,4,1x,8,7,6,5,4,{4}3qq1[8:1],
3pp5[8:1],3qq2[8:1],3pp4[8:1],3b,
{8}1x,1,{24}1x,2,3,4,5,6,1x,2,3,4,5,6,{4}7pp1[8:1],
7qq5[8:1],7pp8[8:1],7qq6[8:1],7b,
{8}2h[16:1],2h[16:1],1h[16:1]/3h[16:1],1h[16:1]/3h[16:1],2,2,2-6[8:1],6-2[8:1],
2-5[8:1],5-3[8:1],{4}3x>7[8:1],{8}6,6,6,6/4,
{24}3x,2,1,8,7,6,3x,2,1,8,7,6,{8}5-2[8:1],2-5[8:1],{4}5x,
{8}1x-6[8:1],6-1[8:1],1-4[8:1],4-1[8:1],{2}1x<6[8:1]*>4[8:1],
{4}5b-8<7<6[4:3],4,4,4,
4-2[8:1],4-1[8:1],{2}4-8[8:1],
{4}1-4>3>2[4:3],5,5,5,
5-7[8:1],5-8[8:1],{2}5-1[8:1],
{4}3,{8}3,{16}3,4,{8}3,3/4,{4}3/5,
2-4[8:1],8-2[8:1],6-8[8:1],4-6[8:1],
3,{8}3,{16}3,4,{8}3,3/4,{4}3/5,
3>1[8:1],5>3[8:1],7<5[8:1],1<7<5[8:1]*V75[8:1],
{1}1b,
E
