&title=舞いひら散りる
&artist=EZFG; 裏命
&first=0.0115
&des_1=HeYyin
&des_5=HeYyin respest for EZFG
&lv_5=13+
&des=HeYyin respest for EZFG
&inote_5=(96)
{1},1b<3[4:5]/6h[2:3],,
{4}1h[4:1],3-6[8:1],7h[4:1],5-8[8:1],2h[4:1],7qq4[8:3],8^3[8:1],,
{4}7qq5[8:1],2pp4[8:1],8qq6[8:1],
{16}1pp3[8:1],,,
{16},7-5v4[6:1],7,,,2^4-1[6:1],2,,,7,7,,,18,,,,
{4}2-5-3[8:1],7-4-6[8:1],1-4-2[8:1],
{16}8-5-7[8:1],,,,
{16}B1,B2,B3,B4,B5,B6,B7,B8,1hx[382:1],2hx[382:1],3hx[382:1],4hx[382:1],5hx[382:1],6hx[382:1],7hx[382:1],8hx[382:1],
{16}1-4[8:1],2,,,5^2[8:1],6,,,8-5[8:1],7,,,4^7[8:1],3,,,2q6[8:1],2,,,6q2[8:1],6,,,4p8[8:1],4,,,8q5[8:1],8,,,
3,4h[16:3],,,7,6h[16:3],,,2,3h[16:3],,,6,5h[16:3],,,1,2h[16:3],,6,5,4pp7[16:5],,,8^3[8:1],,,,8b,,,,
{16}6,7,8h[4:1],,E2,E3,E4h[4:1],,5,6,7h[4:1],,E1,E2,E3h[4:1],,4,5,6-2[8:1],,37,,6,4h[16:2],,1-5[8:1],,E8,C,E4,,,
3,2,1,,2^7[8:1],,45,,2/7^2[8:1],,,,6,,,,37,3/7h[16:6],,5,,3,,1p4^2[16:3]*q6^8[16:3],,37,,1,,,,,
{16}1-3v4[4:1],5,3,,,,,,7-5v4[4:1],3,4,,,,,,1v6[8:1],5,2h[8:1],,1^4[8:1],,2,7,,8hx[4:1],,B1,E3,B4,,,
{8}E8/4x,E7/3x,E6/2x,E5/1x,
{16}E4/8x,,
{8}E3/7x,E2/6x,E1/5x,
{16}78,78,1-4[12:1]/6-1[12:1],16,25,25,16,,58,58,4-1[12:1]/7-4[12:1],47,36,36,47,,2,5h[8:1],,3,6h[8:1],,4,7h[8:1],,5h[32:5],8h[32:3],,
{64}4b/7b,3x/6x,5x/2x,1x/4x,,,,,,,,,,,,,
{16}18,1-5[12:1]/8,,27,,1,,,4-2[12:1]/7,7-5[12:1]/4,,,,,,3,18,1/8-4[12:1],,27,,8,,,5/4-2[12:1],4-6[12:1]/5,,,,,,,
{16}1^4[16:1],1^6[8:1],,1x,,1x,,5,5^2[16:1],5^8[8:1],,5x,,5x,,,
{4}1-5[12:1],1/7-3[12:1],4w8[12:1]/7,4,
{16}7/8,7-4[12:1]/8,,56,,7,,3,1/2-5[12:1],1v6[12:1]/2,,,2,1,,,
4^2[16:1]/7^5[16:1],4/7,,4qq5[8:1]/7,,,,,8-6[12:1],8pp2[8:1],,,8,8,,,
{16}8,8^5[12:1],,15,,48,,,1,1^4[12:1],,84,,15,,,
{32}4bx^7[16:1]/7bx,36,52,,,,,,2bx,3x,4x,,,,,,4bx^7[16:1]/7bx,36,52,,,,,,2bx,3x,4x,,,,,,
{16}8/5,8h[16:9]/5h[16:1],,,3,3h[16:1],,,1pp3[8:1]*qq7[8:1],1h[16:1],,,1b,,,,
{16}5h[16:2]/6h[8:1],,,5h[8:1]/6h[8:1],,,5h[8:1]/6h[8:1],,,5h[8:1]/6h[8:1],,,56,,45,,3h[16:2]/4h[8:1],,,3h[8:1]/4h[8:1],,,3h[8:1]/4h[8:1],,,3h[8:1]/4h[8:1],,,34,,45,,
{16}6/B3,B2,B1,6,,,6,,B3,B2/6,E2,,6,,5,,4/E6,B6,B7,4,,,4,,B5,B6/4,E7,,4,,3,,1h[16:1]/2h[8:1],,,3h[16:1]/8h[8:1],,,7h[16:1]/4h[8:1],,,5h[16:1]/6h[8:1],,,6h[16:1]/7h[16:1],,1h[16:1]/8h[16:1],,7h[16:1]/8h[8:1],,,1h[16:1]/6h[8:1],,,5h[16:1]/2h[8:1],,,3h[16:1]/4h[8:1],,,2h[16:1]/3h[16:1],,2h[16:1]/8h[16:1],,
{8}1v3[8:1],3q8[8:1]/7,C,,6qq4[8:1],4q8[8:1]/8,C,,
{16}3V57[8:1],3,,,7V13[8:1],7,,,5V71[8:1],5,,,1V35[8:1],1,,,7V13[8:1],7,,,3,3,,,2-7b[12:1]/6-3b[12:1],2/6,,,
{64},E1/Cf/E5,,,,,,,,,,,,,,,
{16}2b/5b,2^5[8:1]/5,,16,,27,,,8-6[12:1],8-2-4b[8:1],,,8,,,,5,5-1[12:1],,46,,5^2b[16:1],,,5^8[12:1]/6,6,,,5/4,4,,,3>7[6:1],3,,4,,5,,,6<2b[6:1],6,,5,,4,,,
{64}4-8[12:1],,,,,,,,,,,,,,,,4pp4b[8:1]*qq4b[8:1],Cf,,,,,,,,,,,,,,,4<8[12:1]*>8[12:1],B4f,,,,,,,,,,,,,,,4b,E4f/E5,,,,,,,,,,,,,,,
{16}78,7-4[12:1]/8-3[12:1],,25,,78,,,2v5[12:1],1-6[12:1],,,2,1,,,4^1[16:1]/7^4[16:1],4q8[10:1]/7,,47,,,,1,3-1-5b[8:1],5/8h[16:3],,,3,Cf,,,
{16}1<5[12:1]/5,37,,1x/2x,,3x,,,8>4b[12:1]/4,26,,,8x/7x,6x,,,
{16}2b/7b^4[12:1],,8,1,72,,3,,4v1[12:1]/5,,3,6,45,,7,,7qq5b[8:1]/8,,6,1,78,,2,,B3hf[4:1],,,,
{64}E8,E7,E6,A5,,,,,,,,,,,,,
{16}3bv8[12:1]/4b,,1,5,34,,5,,6V82[8:1]/1,,8,3,46,,3,,2-5-3b[8:1]/1,,3,8,12,,7,,E7hf[4:1],,,,
{64}E1,E2,E3,A3,,,,,,,,,,,,,
{16}1v4[16:1]/2,3-8[12:1]/8,,1,,3,,5q1[10:1],46,37,,1,2,3,,4,5qq3[12:1]/8,5/8-6[12:1],,5,,8,,1q5[10:1],28,37,,6,7,8,,,
{16}12,12,,3-8[12:1]/8,,47,,6p8b[8:1],7,7,,26,,3,,,
{32}8bx^3[16:1]/3bx,27,16,,,,,,6bx,7x,8x,,,,,,{32}8bx^3[16:1]/3bx,27,16,,,,,,6bx,7x,8x,,,,,,
{16}8/5,8h[16:2]/5h[16:1],,,8/3,8h[16:2]/3h[16:1],,,8/2,8h[16:2]/2h[16:1],,,,,,,
{4}3v8[12:1]/B6h[4:1],B5,3v8[12:1]/B6h[4:1],B5,
{16}6hx[2:1]/1,2,,,1,2,,,1qq7[16:3],2pp4[16:2],
{1},E
