&title=cryout
&artist=Ju_E
&first=0
&des=FakewithR
&lv_5=13+
&des_5=FakewithR
&inote_5=
(180){4},{8},,,,,,3,
4,5,6,5,4,3,4,
5,6,5,4,3,7-3[8:1],2,7,
2-6[8:1],8,2,8,1,7,2,8,
1>5[4:3],1,,B5,,B6,,B7,
{4}8bxz4[4:3],1,{8}2,2,3,3,
,,{4}4v1-3[8:5],{8}5,5,{4}6,
8v5-7[4:3],{8}1,1,,2,,3,
,,{4}8/1,2/7,6/3,
{8}4b-8-2-6[4:3],,,6,,,{4}7h[4:1],
,8-4-6-2[4:3],3,2,
{8}1h[2:1],,,4,,,{4}7h[4:1]/1s5[4:3],
,8,7,6,
{12}1,2,3,8,7,6,2,3,4,7,6,5,
2,4,3,7,5,6,{16}C,,,B7/B6,,,{8}B2/B3,
{12}7,5,6,2,4,3,8,6,7,1,3,2,
5,5,3,4,3,5,4,6,5,5,,,2,
2,4,2,4,3,5,4,6,5,6,6,
3,3,4,2,6,6,5,7,4,4,,,{4}6x/8x>5b[2:3],
,,6q7[4:3],
{8},,,,,,,,3,
6,1,8,{4}2h[2:1],8-4[8:1],
{2}8,{16}3,4,3,4,3,4,3,4,
{8}3h[8:1],4h[8:1],5h[8:1],6h[8:3],{4}2-8[8:1],2,
{8}7,5,6x-1[8:1],4,6x-2[8:1],3,6x,3,
3x-8[8:1],6,3,7q6[8:3],,,,,,2/5,
3,3,5,5,7,7,
{4}2/8bh[4:3],2-5[8:1],2,6V42[4:1],
{8},,8,8,7/4,6,5,4,
{4}6/3h[4:3],4-7[8:1],4,8V64[4:1],
{8},,2,2,4/3,5,6/4,7,
{4}8/3,{8}B6,B2,{4}C,6/3,
{8}7<4[8:1],8,1,2<7[8:1],3,4x,5,6x,
{4}6xh[4:1],3-5[8:1],3-8[8:3]*-7[8:3],3,
,6w2[8:1],{2}6,
{8}2b-6b[8:1],8,2,7-4[8:1],3,7,1-5[8:1],2,
1/6-1[8:1],7,6/4,3-8[8:1],2,3/7-5[8:1],6,7/2,
2b-6b[8:1],1,7/2,8-5[8:1],5,8,4,3,
3-6[8:1],4,3,7-2[8:1],5,7,5,4,
3b-8b[8:1],4,3,5<8[8:1],3,5,2,1,
8-4[8:1],6,8,7-4[8:1],2,7,2,1bw5b[8:7],
{1}1b,
{4},7/2,{8}6,5,4,3,
{4}2b-5[8:1]/6b-1[8:1],{64}2/6,Cf,,,,,,,,,,,,,,,{8}7x/2x-6b[8:1],1,2/8<5[8:1],7,
8/4,3-8b[8:1],2,3/7,{16}7-3[8:1],6,{8}5,{4}7/1-5b[8:1],
1/6-8[8:1],{8}6x/3x,2>5[8:1],,2/8-4-8b[4:1],,8,
,,{4}2-6[8:1],{8}2/7-1[8:1],8,{4}7/4-1[8:1],
{8}4/6-2[8:1],7,6-8-4b[4:1],1,6,2,3b-1[8:1],5x,
6-4b[8:1],7,6/2-5[8:1],3,{16}2/8-4[8:1],7,{8}6,8,3,
3-7[8:1],4,3,6-2[8:1],5,6,{4}1w5[8:1],
,2xh[8:1]/7xh[8:1],3h[8:1]/6h[8:1],4b,
{8}1,4,3,8,5,6,2-5[8:1],8,
2,8-4[8:1],3,8,2b,1/3,7,6b/8b,
,,{4}Cf,{8}2/7,3/6,{4}5-8[8:1]/4-1[8:1],
4/5,2/7,1h[8:1]/8h[8:1],1/8,
{12}2,3,4,7,6,5,1,2,3,8,7,6,
8,1,2,6,5,4,1,1,3,8,8,6,
{4}Cf,{8}4/3,4/3,5/2,2/5,1/6,1/6,
7/8,7/8,{4}1>4[4:1],{8}8,7,6,5,
{16}1b,2,3,4,5,1,8,7,6,5,3,4,{8}5x/2x,5x/2x,
{16}8,7,6,5,4,8,1,2,3,4,8,7,6,5,{8}3/4,
{4}2-5[8:1],{8}2/1,8-4[8:1],,8/1,2-6[8:1],2,
,,{4}4/5<8[8:1],{8}5/4,3,{4}2h[4:1],
{16}8,7,6,5,1,2,3,4,7,6,5,4,{4}2/3h[8:1],
{16}1,2,3,4,8,7,6,5,2,3,4,5,{4}6/7-3[8:1],
7,{8}2,1-5[8:1],,1/8,{4}6,
,5/4,{8}3,6,{4}1,
{1}B8/E1/B1/Ch[4:3],
{8},3/6,{16}1,8,1,8,2b/7b,{32},,,,1b/8,2,3,4,,,8b/1,7,6,5,
,,,,,,,,{8}Cf,7V53b[8:1],8,7/1>4[8:1],2,1-5b[8:1],
7-4[8:1],1,7,2,2w6[8:1],6,{64}2b,Cf,,,,,,,,,,,,,,,{16}1x,
2,3,4,2x,3,4,5,3x,4,5,6,{8}8b,8,
{16}8x,7,6,5,7x,6,5,4,6x,5,4,3,{8}1,1,
{16}1,2,3,4x/5x,6,7,8,2x/1x,3,4,5x/6x,7,{8}8,4,
{16}4,3,2,1,8x/6,1,2,3,{8}4x/7,7,3,3,
{16}2b,1,3,8,2,1,3,8,{8}2x-6[8:1]/1x-5[8:1],3/8,{4}2/1,
{16}7,8,6,1,7,8,6,1,{8}7x-3[8:1]/8x-4[8:1],6/1,{4}7/8,
{16}2,1,3,6,5,7,3,4,{8}2x-4[8:1]/5x-1[8:1],C,{4}5x/2x,
{16}7,8,6,3,4,2,6,5,{8}7x-5[8:1]/4x-8[8:1],C,{4}4x/7x,
{16}3,6,1,8,3,6,1,8,{8}2-4[8:1],7-5[8:1],2,7,
{16}3,4,1,8,5,6,1,8,{8}8x/1x,2/7,6/3,5/4,
{16}6,5,8,1,4,3,8,1,{8}1x/8x,2/7,3/6,5/4,
{16}2,4,3,5,4,6,5,7,{8}5x/7x,7x/5x,6/4,6/4,
{16}7,5,6,4,5,3,4,2,{8}4x/2x,2x/4x,3/5,3/5,
{16}4,8,3,7,2,6,1,5,4/8,4h[16:1]/8h[16:1],,1/5,{4}5h[8:1]/1h[8:1],
{16}1,8,2,7,3,6,4,5,{8}4-1[8:1],5-8[8:1],4,5,
{16}2,6,4,8,3,7,1,5,{8}3-8[8:1],6-1[8:1],3,6,
{16}2x,8x,2,7,2,6,2,5,{8}2-5[8:1],5-2[8:1],2,A5f,
{16}7,1,7,2,7,3,7,4,{8}7-4[8:1],4-7[8:1],7,A4f,
{16}3x,8x,2,1,4,7,2,1,{8}2x/1x,3/8,4/7,5/6,
{16}1,7,4,5,2,8,4,5,1,8,4w8b[8:1],5,2,7,{64}4b,Cf,
E
