&title=乖離光
&artist=Feryquitous
&first=0
&des=xxhb
&lv_1=4
&lv_5=14
&inote_5=(205)
{4}
,,,{8},
{16}
,{32}
,{64}
,
{8}
4,,4,,4,5,4h[8:3],,{16}
1,,1,8,7,6,5/4-8[8:1],,,,8,,,,,,
{8}
7h[4:3],,8,8,8,8,8,
6h[8:3],,1,1,5h[8:3],,
2,2,2,
4h[8:5],,1,1,1,1,1,
2h[8:2]/5,,5,5,1h[8:3]/6,,7,
7,83,
1b/2h[4:3],,1,1,1,1,1,
8/3h[4:1],,8,8,4h[8:3]/7,,
7,7,7,
6h[8:6]/5,,8,8,8,8,8,
5/3h[8:3],,5,6,47,83,
{16}
2,1,2,,38,,
7h[4:1]/4b,,,,
2,,5/1-3[8:1],,,,6-8[8:1],,,,
2-5[8:1],,,,7,,8qq8[4:1],,,,4,,,,,,
1>3[8:1],,,,6<8[8:1],,,,5v2[8:1],,,,4<7[8:1],,,,
1>4[8:1],,,,6,,7V51[4:1],,8,,73,,,,,,3,,
2h[4:1]/6,,,,
7,,4/8-6[8:1],,,,3-1[8:1],,,,
7-4[8:1],,,,2,,1-5[8:1],,,,
8>7[16:5],,7,,,,,,
1,,2-4[8:1],,,,6-8[8:1],,,,3-5[8:1],,,,8z4[4:1],,,,,,,,1b,,,,1b,,7,,6,,
3b<5[8:1]/5b,,,,5v2[8:1],,6,,7,,,,8<4[8:1],,3,,8,,,,2<6[8:1],,5,,2,,,,
8,,7,,
6v4[8:1]/4,,,,4q8[8:1],,3,,2,,,,1>5[8:1],,6,,1,,,,7>3[8:1],,4,,7,,,,
1,,2,,
3<5[8:1]/6,,,,5p1[8:1],,6,,7,,,,8<4[8:1],,3,,8,,,,2<6[8:1],,5,,2,,,,
8,,7,,
6>4[8:1]/3,,,,4v7[8:1],,3,,2,,,,1-5[8:1],,5,,1>8[4:1],,,,,,,,1,,2,,
3,,4,,
5b<7[8:1],,,,8p4[8:1],,1,,2,,,,3>7[8:1],,1,,3,,,,5<1[8:1],,1,,5,,,,
2,,3,,
4>2[8:1],,,,1v4[8:1],,8,,7,,,,7p3[8:1],,4,,7,,,,1>5[8:1],,7,,1,,,,
8,,7,,
6>4[8:1],,,,3q7[8:1],,2,,1,,,,8>4[8:1],,5,,8,,,,6<2[8:1],,3,,6,,,,
3,,4,,
6<8[8:1],,,,3,,2,,1b>4[16:3],,3b<6[16:3],,5b<8[16:3],,7b>2[16:3],,,,,,,,,,,,,,5,,,,
3h[4:1]/4h[4:1],,,,,,,,4-8[16:2]/2,,,,,,,,7/5<3[8:4],,,,,,,,,,,,,,
,,5-8[8:1],,,,3,,,,5-2[8:1],,,,7,,,,5-1[8:1],,,,4,,5-2[8:1]*-8[8:1],,,,,,,,
,,
1-4[8:1],,,,4,,5,,6-1[8:1],,,,1,,2,,3-8[8:1],,4,,5,,,,7-4[8:1],,8,,1,,2-4[8:1],,,,7-1[8:1],,,,2-5[8:1],,,,8-4[8:1],,,,2,,8>3[8:1],,,,6,,8<5[8:1],,,,{24}18,2,3,4,,,{16}4b-8[8:1],,,,8pp4[8:4],,7,,6,,,,,,,,6,,5v8[8:1],,,,2,,1>5[16:3]*<5[16:3],,,,,,,,3p6[8:1],,,,7>2[8:1],,,,,,3v6[8:1],,4,,,,8>7[8:3],,,,,,,,,,,,,,
1-5[8:1],,,,1b/3,,,,35,,6,,7,,8-4[8:1],,7,,8<5[8:1]/6,,,,8>3[8:1]/2,,1,,8-4[8:1]/6,,,,84,,,,2,,1-5[8:1],,,,5,,6,,7-4[8:1],,1<3[16:5],,7,,1,,,,,,7,,8-4[8:1],,,,1b,,,,,,
6/5>3[8:1],,,,7,,,,8<6[8:1],,,,2,,,,
4p8[16:3],,,,5,,,,7p3[4:1],,,,1,,,,
1<6[16:3],,,,5,,,,4v7[16:3],,,,2,,,,
8<2[16:6],,,,,,,,1,,,,,,,,
3/4<6[8:1],,,,2,,,,1>3[8:1],,,,7,,,,
5q1[16:3],,,,4,,,,2q6[16:3],,,,8,,,,
8>3[16:3],,,,4,,,,5v2[16:3],,,,7,,,,
1<6[16:4],,,,6p5[16:4],,,,4,,,,,,,,
2<7[16:3],,,,7,,,,6q2[16:3],,,,3,,,,
4>1[16:3],,,,6,,,,8p4[16:3],,,,3,,,,
1<5[16:4],,,,5>1[4:1],,,,1,,,,7p4[8:4],,,,,,,,,,,,2,,,,7,,,,
3qq4[2:1],,,,,,,,7,,,,5,,,,
6pp5[2:1],,,,,,,,2,,,,4,,,,
2-4[16:3],,,,5,,,,8-5[8:1],,8-3[8:1],,8qq1[8:4],,,,{4},,,1-5[8:1],
{16}
1b,,,,7v4[8:1],,5,,7,,1>4[8:1],,7,,1,,
8<2[4:1],,,,4,,,,1<3[4:1],,,,5,,,,
8p4[4:1],,,,4>8[4:1],,,,8<4[4:1],,,,4,,,,
1<5[4:1],,,,5>8[4:1],,,,8,,,,7,,6,,
5h[4:1],,,,4-1[8:1]*-7[8:1],,,,4,,,,8-4[8:1],,,,3>8[8:1],,,,6,,5v2[8:1]*<8[8:1],,,,5,,,,1<2[8:3],,,,6,,5h[2:1],,,,,,,,1,,,,3-8[8:1]/7-4[8:1],,,,3b/7b,,,,,,,,5-1[8:1],,4,,
5b,,,,2v5[8:1],,4,,2,,8<5[8:1],,2,,8,,
1>7[4:1],,,,5,,,,8>6[4:1],,,,4,,,,
1q5[8:1],,,,6q2[8:1],,,,3q7[8:1],,,,8q4[8:1],,,,5<3[16:4],,,,4,,,,6,,,,8,,1,,7/2h[4:1],,,,
1v6[8:1],,3qq4[4:1],,1,,3,,,,5-1[8:1],,,,7,,6h[4:1],,,,8v3[8:1],,6pp5[4:1],,8,,6,,,,4,,3>8[8:1],,,,4,,5,,6h[4:1],,,,5w1[8:1],,,,5b,,,,,,2,,13,,48,,7/5>6[2:1],,,,,,,,,,,,,,,,
,,,,,,,,7,,86,,15,,2b/4b<2[4:1],,,,,,3,,,,5V38[4:1],,,,7,,,,6q2[4:1],,,,2>6[4:1],,,,6<2[4:1],,,,2,,3,,4h[4:1],,,,5-8[8:1]*-2[8:1],,,,5,,,,1q5[8:1],,,,6<1[8:1],,,,3,,4<7[8:1]*>1[8:1],,,,4,,,,8>7[8:3],,,,3,,4h[2:1],,,,,,,,8,,,,6<1[8:1]/2>5[8:1],,,,6b/2b,,,,,,,,4-8[8:1],,5,,4b,,,,
7<4[8:1],,3,,7,,1>4[8:1],,7,,1,,
7V15[4:1],,,,2,,,,3>5[4:1],,,,4,,,,
4q8[8:1],,,,1q5[8:1],,,,7>2[8:1],,,,3p7[8:1],,,,
5>6[4:1],,,,1,,,,3,,,,5,,4,,3/6h[4:1],,,,3,,2<7[8:1],,,,4-8[8:1],,,,5>2[8:1],,,,7v4[8:1],,,,1<2[4:1],,2,,,,,,,,8-4[8:1],,,,81,,,,5,,46,,37,,28,,1b>4[8:1]*<6[8:1],,,,,,,,1bw5[8:1],,,,,,,,
2b<8[8:1]/8b,,,,8v3[8:1],,7,,6,,,,5<1[8:1],,2,,5,,,,3qq4[4:1],,5,,3,,,,
5,,6,,
7>1[8:1]/1,,,,1v6[8:1],,2,,3,,,,4>8[8:1],,7,,4,,,,6pp5[4:1],,4,,6,,,,
4,,3,,
2<8[8:1]/7,,,,8q4[8:1],,7,,6,,,,5<1[8:1],,2,,5,,,,2pp1[4:1],,7,,2,,,,
5,,6,,
7>1[8:1]/2,,,,1p5[8:1],,2,,3,,,,2,,3,,5w1[8:1]/4,,,,5b,,,,,,1,8,
1,8,1,,2bq6[8:1]/7b,,,,1p5[8:1],,1,,4>1[8:1],,,,7p3[8:1],,7,,8q4[8:1],,,,5<8[8:1],,,,1b,,2,,3b>8[8:1],,8<5[8:1],,5b>2[8:1],,,,1,,8,,7-3[8:1],,,,5p1[8:1],,5,,8p4[8:1],,,,2-6[8:1],,,,1<6[8:1],,,,4p8[8:1],,4,,7bp3[8:1],,7,,8>3[8:1],,8,,6v1[8:1],,,,4b<7[8:1],,4,,8-4[8:1],,8,,1q5[8:1],,,,6bq2[8:1],,6,,3q7[8:1],,3,,8b<3[16:3],,,,2,,1>6[16:3],,,,7,,8-4[8:1],,,,8b<2[8:3]/2>8[8:3],,,,8b/2b,,,,,,,,1,,2,,
{8}
6h[4:3],,5,5,5,5,5,
7h[8:3],,4,4,8h[4:1],,
2,2,2,
2h[8:5],,4,4,4,4,4,
3h[8:2],,8,8,4h[8:3],,7,
6,5,
3h[4:3],,4,4,4,4,4,
2h[4:1],,5,5,1h[4:1],,
7,7,7,
7h[8:6],,5,5,5,5,5,
8h[8:2],,{16}1-5[8:1],2,3,4,1b,
{1}
,,,,,,,E
