&title=Astral Quantization
&artist=DJ Grimoire
&first=0
&lv_5=13.9
&des_5=DJ Seed
&inote_5=
(185){4},,,,{1}5-8-3[1:1]/6-2[1:1],
{2},3qq4[1:1],
{1},,{8}6h[8:1],
1h,3h[8:1],8h,5h[8:1],1h,4h[8:1],8h,
6h[8:1],5h,3h[8:1],4h,8h[8:1],5h,1h[8:1],4h,
6h[8:1],8h,3h[8:1],1h,5h[8:1],1h,4h[8:1],8h,
6h[8:1],5h,3h[8:1],4h,7h[8:1],5h,2h[8:1],4h,
7-2[8:1],3-6[8:1],7,3,{4}C,{16}6,5,{8}2/4h[8:1],
{4}5,{16}3,4,{8}7/5h[8:1],{4}4,{16}8-4[8:1],1,8,1,
{8}8/1-5[8:1],2x,1/7<4[8:1],6x,7/2>5[8:1],3x,2/8-4[8:1],7x,
8/1-5[8:1],2x,1/7<4[8:1],6x,7/2>5[8:1],3x,,7x,
{16}6,1,8,1,4,1,8,1,5,1,8,1,{8}7h[8:1],4,
{16}3,8,1,8,5,8,1,8,4,8,1,8,{8}2h[8:1],5,
{16}6,1,8,1,4,1,8,1,5,1,8,1,{8}7h[8:1],4,
{16}3,8,1,8,5,8,1,8,4,8,1,8,{8}2h[8:1],5,
{16}6,1,1,1,5,1,1,1,6,1,1,1,{8}7h[8:1],4,
{16}3,8,8,8,4,8,8,8,3,8,8,8,{8}2h[8:1],5,
{16}8,7,{8}8,{16}2,1,{8}2,{16}6,8,{8}6,{16}3,1,{8}3,
{1}7bp6b[2:1]/2bq3b[2:1],
{16}7,5,{8}6,{16}2,4,{8}3,{16}8,5,{8}6,{16}1,4,{8}3,
{16}6,5,{8}7,{16}3,4,{8}2,{16}6,5,{8}8,{16}3,4,{8}1,
6-2[8:1],2-6[8:1],,4v1[8:1],{2}4v7[8:1],
{16}2,3,7,6,3,4,6,5,{4}4bw8[8:1],C,
{16}2,4,{8}3,{16}7,5,{8}6,{16}1,4,{8}3,{16}8,5,{8}6,
{16}3,4,{8}2,{16}6,5,{8}7,{16}3,4,{8}1,{16}6,5,{8}8,
3-7[8:1],7-3[8:1],,5v8[8:1],{2}5v2[8:1],
{16}7,6,2,3,6,5,3,4,{4}5bw1[8:1],C,
{16}6,5,{8}6,{16}3,4,{8}3,{16}7,8,{8}7,{16}2,1,{8}2,
{16}8,1,{8}8,{16}2,7,{8}2,{16}6,3,{8}6,{16}4,5,{8}4,
7-2>3[8:1],3-6<7[8:1],,4v2[8:1],{2}4v6[8:1],
{24}1,2,3,8,7,6,2,3,4,7,6,5,{4}4bw8[8:1],C,
Ch[8:1],{16}8,B8,1,B1,7,B7,2,B2,6,B6,3,B3,
{4}Ch[8:1],{16}1,B1,8,B8,2,B2,7,B7,3,B3,6,B6,
{4}Ch[8:1],{16}8-4[8:1],1,7,2,{4}8,{16}6,3,7,2,
8,1,8,1,8,1,8,1,8<5[8:1]*>3[8:1],1,8,1,{4}8,
{8}6-1[8:1],5,6,{16}2,7,4h[8:1]/6h[8:1],{8},{16}5h[8:1]/3h[8:1],{8},5h/4h,
3-8[8:1],4,3,{16}7,2,5h[8:1]/3h[8:1],{8},{16}4h[8:1]/6h[8:1],{8},4h/5h,
7-4[8:1],8,7,{16}3,6,1h[8:1]/7h[8:1],{8},{16}8h[8:1]/2h[8:1],{8},8h/1h,
2-5[8:1],1,2,{16}6,3,8h[8:1]/2h[8:1],{8},{16}1h[8:1]/7h[8:1],{8},1h/8h,
{16}1/5,2,3,4,5/1,6,7,8,1-6[8:1]/5-2[8:1],2/6,3/7,4/8,{4}1b/5b,
{16}8/4,7,6,5,4/8,3,2,1,8-3[8:1]/4-7[8:1],7/3,6/2,5/1,{4}8b/4b,
{8}8-5[8:1],1-4[8:1],8,1,7-2[8:1],3-6[8:1],7,3,
{16}8x,1x,6x,3x,7,2,5,4,{32}1w5b[8:1],2,3,4,5,6,7,8,{4}1b,
3h[8:1],{16}7,B3,{8}7,{16}1,B5,{8}1,{16}8,B4,{8}8,
{16}2,B6,{8}2,{16}6,B2,{8}6,{16}4,B8,{8}4,{16}5,B1,{8}5,
{16}7,B3,{8}7,{16}1,B5,{8}1,{16}8,B4,{8}8,{16}2,B6,{8}2,
{16}6,B2,{8}6,{16}4,B8,{8}4,{16}5,B1,{8}5,{16}3,B7,{8}3,
{16}4,6,5,6,3,6,5,6,2-7b[8:1],6,5,6,{4}2,
{16}5,3,4,3,6,3,4,3,7-2b[8:1],3,4,3,{4}7,
{16}7b-3b[8:1],8,7,6,{4}7,{16}2b-6b[8:1],1,2,3,{4}2,
{16}5,4,6,3,5,4,6,3,{32}A5/B5,A6/B6,A7/B7,A8/B8,A1/B1,A2/B2,A3/B3,A4/B4,{4}A5/B5f,
{16}1x/6h[8:15],1x,{8}1x-7[64:7],{16}1x,1x,{8}1x-3[64:7],{16}1x,1x,{8}1x-7[64:7],{16}1x,1x,{8}1x-3[64:7],
{16}1x,1x,{8}1x-7[64:7],{16}1x,1x,{8}1x-3[64:7],{16}1x,1x,{8}1x-6[64:7],{16}1x,1x,{8}1x,
{16}4x/7h[8:15],4x,{8}4x-6[64:7],{16}4x,4x,{8}4x-2[64:7],{16}4x,4x,{8}4x-6[64:7],{16}4x,4x,{8}4x-2[64:7],
{16}4x,4x,{8}4x-6[64:7],{16}4x,4x,{8}4x-2[64:7],{16}4x,4x,{8}4x-6[64:7],{16}4x,4x,{8}4x,
{16}8x/3h[8:15],8x,{8}8x-2[64:7],{16}8x,8x,{8}8x-6[64:7],{16}8x,8x,{8}8x-2[64:7],{16}8x,8x,{8}8x-6[64:7],
{16}8x,8x,{8}8x-2[64:7],{16}8x,8x,{8}8x-6[64:7],{16}8x,8x,{8}8x-3[64:7],{16}8x,8x,{8}8x,
{16}5x/2h[8:15],5x,{8}5x-3[64:7],{16}5x,5x,{8}5x-7[64:7],{16}5x,5x,{8}5x-3[64:7],{16}5x,5x,{8}5x-7[64:7],
{16}5x,5x,{8}5x-3[64:7],{16}5x,5x,{8}5x-7[64:7],{16}5x,5x,{8}5x-3[64:7],{16}5x,5x,{8}5x,
{4},{16}8-4[8:1],8,{8}8,{16}2-6[8:1],2,{8}2,{16}7-3[8:1],7,{8}7,
{16}1-5[8:1],1,{8}1,{16}6-2[8:1],6,{8}6,{16}4-8[8:1],4,{8}4,{16}5-1[8:1],5,{8}5,
{16}3-7[8:1],3,{8}3,{16}8b-4b[8:1],8,{8}8,{16}2b-6b[8:1],2,{8}2,{16}7b-3b[8:1],7,{8}7,
{16}1b-5b[8:1],1,{8}1,{16}8b-4b[8:1],8,{8}8,{16}2b-6b[8:1],2,{8}2,{16}7b-3b[8:1],7,{8}7,
{4}2bh[4:1],{16}1,2,8,3,7,4,6,5,{4}Cf,
7h[4:1],{16}8,7,1,6,2,5,3,4,{4}Cf,
1b-7b[8:1]*-3b[8:1],1b,{8}6b/2b,4bw8b[64:7],,4b,
,7b/3b,6b/2b,7b/3b,5b/1b,7b/3b,1b/5b,7b/3b,
{4}1-5[8:1],1/7-3[8:1],7/2-6[8:1],2/8-4[8:1],
8-6[8:1]/5-1[8:1],8/5,{32}4,5,{16}4,{8},7b/2b,7b/2b,
8b/1b,2b/7b,7b/2b,Cf,{4}8-5[8:1],2b/8-3[8:1],
6b/8<5[8:1],1b/8>3[8:1],7b/8-4[8:1],2b/8,
1V35[8:1],7b/1-6[8:1],1/3b,{16}8b/4b,8b/4b,,2b/6b,
{4}2b-6[8:1]/6-2[8:1],2b/6b,{8}8b/1b,{16}6b/4b,6b/4b,,5b/3b,{8}3b/5b,
{4}7/B3f/E4f/B4f,2/B6f/E6f/B5f,{8}E2f/B2f/B3f/E4f,E8f/B7f/B6f/E6f,,1-5b[8:1],
2-6b[8:1],1-7b[8:1],2-4b[8:1],1-5b[8:1],2-6b[8:1],1,{4}2,
1h[64:15],{32}2bx/7bx,3x,4x,5x,6x,7x,8x,1x,2bx/7bx,6x,5x,4x,3x,2x,1x,8x,2bx/7bx,3x,4x,5x,6x,7x,8x,1x,
2bx/7bx,6x,5x,4x,3x,2x,1x,8x,2bx/7bx,3x,4x,5x,6x,7x,8x,1x,2bx/7bx,6x,5x,4x,3x,2x,1x,8x,2bx/7bx,3x,4x,5x,6x,7x,8x,1x,
{4}2bx/7bx,{16}6h,5,{8}8,{16}6h,5,{8}1,{16}6h,4,{8}8,
{16}3h,4,{8}1,{16}3h,4,{8}8,{16}3h,5,{8}1,{16}3h,5,{8}8,
{16}6h,3,{8}8,{16}6h,2,{8}8,{16}6h,3,{8}8,{16}6h,3,{8}1,
{16}6h,3,{8}8,{16}6h,2,{8}8,{16}6h,3,{8}8,{16}6h,3,{8}1,
{16}3h,6,{8}1,{16}3h,7,{8}1,{16}3h,6,{8}1,{16}3h,7,{8}1,
{16}3h,6,{8}1,{16}3h,7,{8}1,{16}3h,6,{8}1,{16}3h,7,{8}1,
4h[16:1],{16}4,4,{8}4h[16:1],{16}4,4,{8}4h[16:1],{16}4,4,{8}4h[16:1],{16}4,4,
{8}4h[16:1],{16}4,4,{8}4h[16:1],{16}4,4,{8}7h[8:1],2h[8:1],{64}8,B8,C,B4,{16},,,{8}5h[16:1],
{16}5,5,{8}5h[16:1],{16}5,5,{8}5h[16:1],{16}5,5,{8}5h[16:1],{16}5,5,
{8}5h[16:1],{16}5,5,{8}5h[16:1],{16}5,5,{8}2h[8:1],7h[8:1],{64}1,B1,C,B5,{16},,,{8}8b/3b,
8b/3b,{32}8b/3b,4,{16}5,{8},{32}8b/3b,4,{16}5,{8},{32}8b/3b,4,{16}5,{8},{32}1b/6b,
5,{16}4,{8},{32}8b/3b,4,{16}5,{8},{32}1b/6b,5,{16}4,{8},{32}3b/8b-5[8:1],4,{16}5,{8},{4}4/8b-3[8:1],
4/8b,{8}6b/2b,6b-2[8:1]/2b-6[8:1],,,,8bxh[8:1],
6bh[8:1],4bxh[8:1],2bh[8:1],1bxh[8:1],7bh[8:1],5bxh[8:1],
{16}2b,4,3,4,1b,4,3,4,2b,5,4,5,1b,5,4,5,
2b,6,5,6,1b,6,5,6,2b,6,5,6,{4}1b-5b[8:1],
1bxw5[8:1],1bx,{8}2b-7[8:1],6b-3b[8:1],2x,6x,
,7b/8x,5b/4x,2b/1x,5x-8[8:1]/4b-1b[8:1],3x/6b,{4},{16}7b,
5,6,5,8b,5,6,5,7b,4,5,4,8b,4,5,4,
7b,3,4,3,8b,3,4,3,7b,3,4,3,{4}8b-4b[8:1],
8bxw4[8:1],8bx,{8}7b-2[8:1],3b-6b[8:1],7x,3x,
,2b/1x,4b/5x,7b/8x,4x-2[8:1]/5b-7b[8:1],6x/3b,{4},1/8b-5[8:1],
1/8b-2[8:1],7/8b-6[8:1],1/8b-3[8:1],
7/8b-5[8:1],1/8b-2[8:1],7/8b,{8}B6/E6/B2/E3/A2f/A6f,A7f/A1f/E7/B7/E2/B1,
8b-5[8:1],7,2/8b-3[8:1],1,6/8b-5[8:1],7,2bx/8b-3[8:1],1bx,
6/8b-5[8:1],7,2/8b-3[8:1],1,8b/6bx-3b[8:1],7bx,{4},8/1b-4[8:1],
8/1b-7[8:1],2/1b-3[8:1],8/1b-6[8:1],
2/1b-4[8:1],8/1b-7[8:1],2/1b,{8}B3/E4/B7/E7/A7f/A3f,A2f/A8f/E3/B2/E8/B8,
{4}1w5b[8:1],1,{8}7b/3b,7bh[64:15]/3bh[64:15],,{64}E8f/E4f,B8/B4,B1/B5,E2/E6,{16},,,{8}7bx/6bx,
2bx/3bx,5bx/4bx,8bx/1bx,4bx/5bx,E3f/A2/A3/B2/B3,E7f/B7/B6/A7/A6,
3h[8:1],8h,6h[8:1],1h,4h[8:1],8h,5h[8:1],1h,
3h[8:1],4h,6h[8:1],5h,1h[8:1],4h,8h[8:1],5h,
3h[8:1],1h,6h[8:1],8h,4h[8:1],8h,5h[8:1],1h,
3h[8:1],4h,6h[8:1],5h,2h[8:1],4h,7h[8:1],5h,
{4}Ch[8:1],{16}1,B1,8,B8,2,B2,7,B7,3,B3,6,B6,
{4}Ch[8:1],{16}8,B8,1,B1,7,B7,2,B2,6,B6,3,B3,
8,1,7,2,6,3,5,4,8,7,1,2,7,6,2,3,
5,4,5,4,5,4,5,4,5,4,5,4,5-1[8:1],4,5,4,
E
&lv_7=1
&des_7=
&inote_7=
(125){4},
E
