&title=[鸽]Galaxy Collapse
&artist=黒皇帝
&first=0.000
&des=OAT
&clock_count=4
&lv_6=14+
&des_6=OAT
&inote_6=
(270){4},,,,,,,,{1}1<1[2:7],
,,,7>5[4:9],
{2},,,,3,
2,
1h[4:1],2h[4:1]/4h[4:1],
3h[4:1]/5h[4:1],4h[4:1]/6h[4:1],
7h[4:1],6h[4:1]/5h[4:1],
5h[4:1]/4h[4:1],4h[4:1]/3h[4:1],
2h[4:1],1h[8:1]/3h[4:1],
2h[8:1]/8h[4:1],1h[4:1]/7h[8:1],
8h[4:1],7h[4:1]/1h[8:1],
2h[4:1]/6h[8:1],3h[8:1]/5h[4:1],
{8}2,4,{4}3,{8}3,4,{4}3,
{8}3,5,{4}4,{8}4,5,{4}4,
{8}6,5,{4}7,{8}6,5,{4}6,
{8}5,4,{4}6,{8}5,4,{4}5,
{8}3,4,{4}2,{8}3,4,{4}3,
{8}4,5,{4}3,{8}4,5,{4}4,
{8}7,5,{4}6,{8}6,5,{4}6,
{8}6,4,{4}5,{8}5,4,{4}5,
{8}3,5,4,6,3,5,4,6,
3,5,4,6,3,4,5,6,
3,6,4,5,3,6,4,5,
3,6,4,5,3,4,6,5,
3,5,4,6,2,5,4,7,
1,5,4,8,2,5,4,7,
2,4,3,5,4,6,5,7,
3,3,5,5,4,4,6,6,
{1}4bh[2:7],
{4},,,,,,,,,,,,6-4[8:1],
3,2-4[8:1],{8}5,6,
{4}7-4[8:1],2h[4:1],6-8[8:1],{8}3,3,
{4}1-7[8:1],3h[4:1],6-4[8:1],1,
8-2[8:1],4,5,{8}6,6,
{4}3-5[8:1],6,7-5[8:1],{8}4,3,
{4}2-5[8:1],7h[4:1],3-1[8:1],{8}6,6,
{4}8-2[8:1],6h[4:1],3-5[8:1],8,
{8}1-7[8:1],5,{4}5,{8}4,3,2,1,
8-2[8:1],6,{4}6,{8}7-5[8:1],4,{4}4,
{8}3-1[8:1],5,{4}5,{16}7,6,5,4,1,2,3,4,
{8}8-6[8:1],2,{4}2,{8}1-3[8:1],4,{4}4,
{8}5-7[8:1],3,{4}3,{16}2,3,4,5,8,7,6,5,
{8}2-8[8:1],2,5,5,3,3,{16}8,7,{8}6,
2,2,4,4,6,6,{16}8,7,{8}6,
1,1,{16}7,6,{8}5,3,3,{16}1,8,{8}7,
{16}2,3,4,5,8,7,6,5,1,2,3,4,7,6,5,4,
{4}1-3[8:1],6h[4:1],5-2[8:1],7h[4:1],
1-3[8:1],6-4[8:1],1-5[8:1],7-3[8:1],
2h[4:1],4-6[8:1],3h[4:1],8-6[8:1],
2-4[8:1],1,8<4[4:1],{16}4,3,2,1,
{4}8-3[8:1],7-4[8:1],1-4[8:1],8-5[8:1],
2-5[8:1],1h[4:1],3-8[8:1],4h[4:1],
1-5[8:1],8-6[8:1],2-4[8:1],1-5[8:1],
3x,2/4,1,{8}1/8,1/8,
{4}7/2-5[8:1],8-4[8:1],1-5[8:1],7-4[8:1],
2-8[8:1],5,2-4[8:1],7,
8-4[8:1],1-3[8:1],7-5[8:1],8-4[8:1],
6x,5/7,4/8,{16}7,6,5,4,
{8}2,2,5,5,3,3,{16}8,7,6,5,
{8}2,2,4,4,6,6,{16}8,7,6,5,
1,2,3,4,5,6,7,8,6h[32:1],5h[32:1],4h[32:1],3h[32:1],2h[32:1],1h[32:1],8h[32:1],7h[32:1],
{4}1b,2b/8b,{2}3b/7b,
{8}2,4,3,5,2,4,3,5,
2,4,4,6,2,4,4,6,
3,5,4,6,3,5,4,6,
3,4,4,5,3,4,4,5,
3,5,4,6,3,5,4,6,
3,5,5,7,3,5,5,7,
4,6,5,7,4,6,5,7,
{4}4b,3b/5b,2b/6b,{16}3,5,3,5,
{8}2-6[8:1],2,7-4[8:1],7,3,3,{16}8,7,{8}6,
3-8[8:1],3,5-1[8:1],5,{16}2,3,{8}4,{16}8,7,{8}6,
4-8[8:1],4,5-1[8:1],5,3-8[8:1],3,{16}8,7,{8}6,
2-5[8:1],2,6-1[8:1],6,{16}1,2,{8}3,{16}7,6,{8}5,
3,3,5,5,2,2,{16}7,6,5,4,
{8}1,1,3,3,5,5,{16}8,7,6,5,
{8}3,3,{16}8,7,6,5,{8}1,1,{16}6,5,4,3,
8,7,6,5,4,3,2,1,8/4h[32:1],5h[32:1],6h[32:1],7h[32:1],8h[32:1],1h[32:1],2h[32:1],3h[32:1],
1/4h,B1,C,B5,{4}A5,(150){2}3xh[4:5]/7xh[4:9],
,,{1}2x>8[2:3],
{4}8,1,2,3,
{2}4/8xh[2:1],{8}7h[8:1],6h[8:1],5h[8:1],4h[8:3],
{24},,,,,,{12}3,3,4,{4}2V46[2:1],{8}6,7,
8,,,1-5[2:1],,,5,4,
{4}3,2-4[8:1],{2}8,
{4}5b/7bh[2:1],4h[8:3],,1,
4b/2bh[2:1],5h[8:3],,8,
6b/1bh[2:1],4h[8:3],,6,
3b/8bh[2:1],5h[8:3],,2,
{2}1xh[2:1]/5-3[8:1],{8}2h[8:1],3h[8:1],4h[8:1],5h[8:3],
{24},,,,,,{12}6,6,5,{4}7V53[2:1],{8}3,2,
1,,,8-4[2:1],,,4,5,
{4}6,8w4[8:1],8,{16}7,7,5,5,
(165){4}6,7h[8:1]/5h[8:1],6h[8:1]/4h[8:1],{16}2,2,4,4,
(195){4}3,2h[8:1]/4h[8:1],3h[8:1]/5h[8:1],{16}6,6,4,4,
(225){4}7,6h[8:1]/4h[8:1],5h[8:1]/3h[8:1],{16}3,3,5,5,
(255){4}2,5h[8:1]/3h[8:1],4h[8:1]/6h[8:1],7,
(285)1-5[4:1],1,7-4[0.2105##0.2105],7,
(315)2-5[4:1],2,8-4[0.1905##0.1905],8,
(345)1-5[4:1],1,8-6[8:1],8,
(375)2-4[8:1],2,1-5[8:1],1,
(405)2,8,1,7,
(435)1,8,2,7,
(465)1,1,8,8,
(495)1,1,8,8,
(520)1,8,1,8,
1,8,1,8,
{8}1,2,3,4,5,6,7,8,
{16}1,2,3,4,5,6,7,8,1,2,3,4,5,6,7,8,
(600){1}1bxh[#2.400002],
,,,,,(300),
{8}4b,4,6,6,3,3,5,5,
{4}2,{8}7,6/4,,3,{4}2/5,
{8}6b,6,3,3,5,5,4,4,
{4}7,{8}2,3/5,,6,{4}7/4,
{8}7,7,5,5,4,4,2,2,
{4}8,{8}7,6/1,,2,{4}8/3,
7-5[8:1],{8}2,2h[4:1],,,{4}6,
{16}4,5,4,5,4,5,4,5,4,5,4,5,{4}4,
{8}7,7,{4}5/6,{8}3,3,{4}5/4,
6-4[8:1],{8}2,2h[8:3],,,{4}5,
{8}3,3,{4}4/5,{8}7,7,{4}5/6,
4-8[8:1],{8}7,7-4[8:1],,1,{4}1,
{8}4/2,3,{4}3,{8}5/7,6,{4}6,
3/5-7[8:1],{8}2,2-5[8:1],,1,{4}1,
{16}8,7,6,5,3,2,1,8,4,5,6,7,1,2,3,4,
8,4,8,4,8,4,8,4,8,4,8,4,{4}8,
(320){8}7,5,6,4,6,5,5,4,
6,4,5,3,5,4,4,3,
6,5,6,5,7,4,7,4,
8,3,8,3,1,2,1,2,
8,7,2,3,7,6,3,4,
6,5,2,3,7,6,3,4,
{16}7b,5,7,5,{8}7,{16}2b,4,2,4,{8}2,{16}8,1,{8}8,
{16}2,3,4,5,8,7,6,5,1,2,3,4,7,6,5,4,
{8}2,2,5,5,4,4,7,7,
2-4[8:1],2,8-6[8:1],8,2-4[8:1],2,8-6[8:1],8,
1,1,3,3,5,5,7,7,
2-4[8:1],2,8-6[8:1],8,2-4[8:1],2,8,8,
1,1,2/8,2/8,3/7,3/7,4/6,4/6,
3/5,3/5,2/6,2/6,1/7,1/7,2/8,2/8,
{16}1,7,1,7,1,7,1,7,1,7,1,7,1,7,1,7,
2,8,2,8,2,8,2,8,2,8,2,8,2,8,2,8,
{1}1bxh[1:2],
{8}B3,,,E8,,,{4}E6,
{1}7xh[1:2],
{8}B1,,,E6,,,{4}E4,
{1}5xh[1:2],
{8}B7,,,E4,,,{4}E2,
{1}3xh[1:2],
{2}2x,1x,
{1}8xh[1:2],
{8}B6,,,E2,,,{4}B3,
{1}2xh[1:2],
{8}B4,,,E2,,,{4}B6,
4x,4xh[2:1],,6x,
{8},,7x,6x,{4}5x,5x,
{1}7xh[2:3]/4x-8[2:1],
1xh[1:1],
8h[1:2],
,2h[1:2],
,4-7[2:3],
,4h[1:1],
6h[1:1],
1h[1:2],
,7h[1:2],
,5-2[2:3],
{4},,,,8,
7,6,5,
4,3,2,1,
E
