&title=命に嫌われている
&artist=25時、ナイトコードで。
&first=0
&lv_7=狂14+
&des=NaTsuYu
&wholebpm=200
&inote_7=(200){1},
{16},,,,,,,,
{16}B5,,,,B4,,,,
{16}E3,B2,B1,,,,E6,,
{16},,,,B4,,,,
{16}E3,B2,B1,,,,E6,,
{16},,,,B4,,,,
{16}E3,B2,B1,,,,,,
{16},,,,,,,,
{16},,,,E6,,,,
{16}B5,,,,B4,,,,
{16}E3,B2,B1,,,,,,
{16},,,,B4,,,,
{16}E6,,,,,,B5,,
{16},,,,B4,,,,
{16}E3,B2,B1,,,,,,
{16},,,,,,E7,B6,
{16}B5,,,,,,,,
{16}B4,,5,,4/5,,,,
{16}7-5[16:2]/E4,,,,7,,E4,,
{16}6-8[16:2],,,,6/E4,,,,
{16}7-5[16:2]/E4,,E4,,7,,,,
{16}6-8[16:2]/E4,,,,6/E4,,,,
{16}2-4[16:2]/E6,,,,2,,E6,,
{16}3-1[16:2],,,,3/E6,,,,
{16}2-4[16:2]/E6,,E6,,2,,,,
{16}3-1[16:2]/E6,,,,3/E6,,,,
{16}7-5[16:2]/E4,,,,7,,E4,,
{16}6-8[16:2],,,,6/E4,,,,
{16}2-4[16:2]/E6,,,,2,,E6,,
{16}3-1[16:2],,,,3/E6,,,,
{16}E4,,,,E4,,,,
{16}E6,,,,E6,,,,
{16}2/4,,,,3/5,,,,
{16}4/6,,,,5/7,,,,
{16}8-5[16:2],,8,,4-1[16:2],,4,,
{16}7-4[16:2],,7,,3-8[16:2],,3,,
{16}6q3[16:6],,6,5,4h[16:8],,,,
{16},,,,,,,,
{16}1-4[16:2],,1,,5-8[16:2],,5,,
{16}2-5[16:2],,2,,6-1[16:2],,6,,
{16}3p6[16:6],,3,4,5h[16:8],,,,
{16},,,,2/8,,,,
{16}8-5[16:2],,8,,4-1[16:2],,4,,
{16}7-4[16:2],,7,,3-8[16:2],,3,,
{16}6q3[16:6],,6,,4h[16:4],,,,
{16},,,,5/6,,4/5,,
{16}3-8[16:2]/4,,,,3,,6-1[16:2],,
{16},,6>7[16:6],,3,,,,
{16},,,,,,,,
{16}1-4[16:2]/8-5[16:2],,,,1b/8b,,,,
{16}6<1[16:2],,6,,4q1[16:2],,4,,
{16}6p1[16:2],,6,,4>1[16:2],,4,,
{16}6q4[16:6],,6,7,8h[16:6],,,,
{16},,,,5<8[16:2],,5,,
{16}3>8[16:2],,3,,5p8[16:2],,5,,
{16}3q8[16:2],,3,,5<8[16:2],,5,,
{16}3p5[16:6],,3,2,1h[16:6],,,,
{16},,,,4>1[16:2],,4,,
{16}6<1[16:2],,6,,4q1[16:2],,4,,
{16}6p1[16:2],,6,,4>1[16:2],,4,,
{16}6q4[16:6],,6,,8h[16:6],,,,
{16},,,,4/3,,5/4,,
{16}6-1[16:2]/5,,,,6,,3-8[16:2],,
{16},,3,,6,,,,
{16}1b/B8,,,,1b/B4,,,,
{16}1b/B2,,,,1b/B6,,,,
{16}6,,6h[16:4],,5,,5h[16:4],,
{16}4,,4h[16:4],,3,,3,,
{16}2b/7b,,,,7-4[16:2],,2-6[16:2],,
{16}7-1[16:2],,2,,7,,,,
{16}3,,3h[16:4],,4,,4h[16:4],,
{16}5,,5h[16:4],,6,,6,,
{16}7<5[16:2]/2>4[16:2],,,,7-3[16:2]/2-6[16:2],,,,
{16}7-1[16:2]/2-8[16:2],,,,7/2,,,,
{16}6,,6h[16:4],,5,,5h[16:4],,
{16}4,,4h[16:4],,3,,3,,
{16}2b/7b,,,,7-4[16:2],,2-6[16:2],,
{16}7-1[16:2],,2,,7,,,,
{16}2>6[16:4],,,,,,8,,
{16}7<3[16:4],,,,,,1,,
{16}2>6[16:4],,,,,,8,,
{16}7<4[16:4],,,,,,,,
{16}2-5[16:2],,3,,7-4[16:2],,6,,
{16}3-8[16:2],,2,,6,,7,,
{16}1/5,,,,1,,7-4[16:2],,
{32}1v4[16:2],2,3,4,{16}7,,1,,,,
{16}7-4[16:2],,6,,2-5[16:2],,3,,
{16}6-1[16:2],,7,,3,,2,,
{16}8/4,,,,8,,2-5[16:2],,
{32}8v5[16:2],7,6,5,{16}2,,8,,,,
{16}2-5[16:2],,3,,7-4[16:2],,6,,
{16}3-8[16:2],,2,,6,,7,,
{16}1q5[16:2]/5q1[16:2],,,,1<6[16:2]/5>2[16:2],,,,
{16}1pp3[16:2]/5pp7[16:2],,,,1/5,,,,
{16}7-4[16:2],,6,,2-5[16:2],,3,,
{16}6-1[16:2],,7,,3,,2,,
{16}8<5[16:2]/4>1[16:2],,,,8/4,,,,
{16}1/8,,2/7,,3/6,,4/5,,
{16}3v4[16:2],,3,,7v8[16:2],,7,,
{16}5v2[16:2],,5,,1v6[16:2],,1,,
{16}3w7[16:2],,,,3b,,,,
{16},,,,4/8,,3/7,,
{16}6v5[16:2],,6,,2v1[16:2],,2,,
{16}4v7[16:2],,4,,8v3[16:2],,8,,
{16}6w2[16:2],,6,,6b,,,,
{16}1/8,,2/7,,3/6,,4/5,,
{16}3v8[16:2],,3,,7v4[16:2],,7,,
{16}1v6[16:2],,1,,5v2[16:2],,5,,
{16}3w7[16:2],,3,,3b,,,,
{16},,,,2/6w2[16:2],,,,
{16}6b,,,,2v5[16:2],,2,,
{16}8v3[16:2],,8,,4v7[16:2],,4,,
{16}6v1[16:2],,6,,6,,,,
{16}8-6[16:2],,8-5[16:2],,8-4[16:2],,8-3[16:2],,
{16}8-5[16:2],,8-4[16:2],,8-3[16:2],,8-2[16:2],,
{16}8-6[16:2],,8-5[16:2],,8-4[16:2],,8,,
{16}8w4[16:2],,,,8b,,,,
{16},,1-4[16:2],,1-5[16:2],,1-6[16:2],,
{16}1-4[16:2],,1-5[16:2],,1-6[16:2],,1-7[16:2],,
{16}1-3[16:2],,1-4[16:2],,1-5[16:2],,1,,
{16}1w5[16:2],,,,1b,,,,
{16},,,,5-1[16:2],,5-2[16:2],,
{16}5-8[16:2],,5-1[16:2],,5-2[16:2],,5-3[16:2],,
{16}5-7[16:2],,5-8[16:2],,5-1[16:2],,5,,
{16}5w1[16:2],,5,,5b,,,,
{16}4-2[16:2],,4-1[16:2],,4-8[16:2],,4-7[16:2],,
{16}4-1[16:2],,4-8[16:2],,4-7[16:2],,4-6[16:2],,
{16}4-2[16:2],,4-1[16:2],,4-8[16:2],,4,,
{16}4w8[16:2],,4,,4b>5[66#20:50],,,,
{1},,,,,,,,
{16},,,,,,,,
{16}1>5[16:26]/8,,,,8,,8,,
{16},,7,,7,,6,,
{16}6,,7,,7,,8,,
{16}8,,1,,,,,,
{16}8<4[16:24]/1,,8,,1,,1,,
{16}2,,2,,3,,3,,
{16}2,,2,,1,,1,,
{16}8,,,,,,2>5[16:2],,
{16}1,,2,,,,7p3[16:2],,
{16}8,,7,,,,1-3-5[16:2],,
{16}8,,1,,,,8v3[16:2],,
{16}1,,8,,,,2-5[16:2],,
{16}8,,2,,8-5[16:2],,1,,
{16}8,,1-4[16:2],,8,,1,,
{16}7-4[16:2],,1<3[16:4],,7,,1,,
{16},,,,,,2>5[16:2],,
{16}1,,2,,,,7p3[16:2],,
{16}8,,7,,,,1-3-5[16:2],,
{16}8,,1,,8v3[16:2],,1,,
{16}8,,,,,,7-4[16:2],,
{16}1,,7,,1-4[16:2],,8,,
{16}1,,8-5[16:2],,1,,8,,
{16}2-5[16:2],,8>6[16:4],,2,,8,,
{16},,,,1-4[16:2]/8-5[16:2],,,,
{16}1b/8b,,,,,,,,
{16},,,,2-7[16:2]/6-3[16:2],,,,
{16}2b-5[16:2]/6b-1[16:2],,,,2b/6b,,,,
{16},,,,,,,,
{16}4>1[16:2]/5<8[16:2],,,,4b/5b,,,,
{16}2/7,,3/6,,4/5,,,,
{16}4-1[16:2]/5-8[16:2],,,,4b/5b,,,,
{16}Ch[16:6],,,,,,,,
{16}3v8[16:2],,3,,7v4[16:2],,7,,
{16}3>8[16:2],,3,,7<4[16:2],,7,,
{16}3w7[16:2]*-7[16:2],,,,3b,,,,
{16},,,,3/7,,,,
{16}6v1[16:2],,6,,2v5[16:2],,2,,
{16}6<1[16:2],,6,,2>5[16:2],,2,,
{16}6w2[16:2]*-2[16:2],,6,,6b,,,,
{16},,,,3/4,,3/4,,
{16}1-5[16:2]/5,,,,1b/5b,,,,
{16},,,,6/5,,6/5,,
{16}8-4[16:2]/4,,,,8b/4b,,,,
{16}2/6,,3/7,,1/5,,4/8,,
{16}2-5[16:2],,2,,6-1[16:2],,6,,
{16}3-8[16:2],,3,,7-4[16:2],,7,,
{16}1w5[16:2],,1,,1b,,,,
{16}7/4,,5/1,,8/4,,5/2,,
{16}3q8[16:2],,3,,7q4[16:2],,7,,
{16}5>2[16:2],,5,,1<6[16:2],,1,,
{16}3w7[16:2]*-7[16:2],,3,,3b,,,,
{16}2/5,,4/8,,1/5,,4/7,,
{16}6p1[16:2],,6,,2p5[16:2],,2,,
{16}4<7[16:2],,4,,8>3[16:2],,8,,
{16}6w2[16:2]*-2[16:2],,6,,6b,,,,
{16},,4/5,,1-4[16:2]/8-5[16:2],,,,
{16}1/8,,,,1-6[16:2]/2-5[16:2],,3/8,,
{16}1/2,,,,8-5[16:2]/1-4[16:2],,2/7,,
{16}8/1,,,,7-4[16:2]/8-3[16:2],,1/6,,
{16}7/8,,,,1b-3b[16:2]*-5b[16:2],,1b,,
{16}1b,,,,1b-4b[16:2]*-6b[16:2],,1b,,
{16}1b,,,,1b-5b[16:2]*-7b[16:2],,1b,,
{16}1b,,,,1bw5b[16:2]*-5b[16:2],,1b,,
{16}1b,,,,2bw6b[16:2]/8bw4b[16:2],,4b/6b,,
{8}2b/8b,,,,,4,2-5[16:2]/6-1[16:2],,
{8}2b<8[16:2]/6b<8[16:2],,2v7[16:2]/6v3[16:2],,2-4[16:2]/6-4[16:2],,2/6,,
{8}3/5,,4,2/6,,5,7-4[16:2]/3-8[16:2],,
{8}7x>1[16:2]/3x>1[16:2],,7xv2[16:2]/3xv6[16:2],,7x-5[16:2]/3x-5[16:2],,7x/3x,,
{8}6/4,,5,7/3,,4,2-5[16:2]/6-1[16:2],,
{8}2-6[8:1]/6-2[8:1],,2/6,,8,8,1/7,1/7,
{8}2b/6b,,1/2,3/8,,7/8,1/6,,
{16}1,2,3,4,5/1,8,7,6,
{16}1/5,2,3,4,5b/1b,,,,
{8}4/5,,1/2,3/8,,7/8,1>3[16:2]/6-8[16:2],,
{8}1b-4[16:2]/6b-4[16:2],,1-5[16:2]/6-8[16:2],,1bpp3[16:2]/6bv3[16:2],,1/6,,
{8}5/4,,8/7,6/1,,2/1,8<6[16:2]/3>1[16:2],,
{8}8x-5[16:2]/3x-5[16:2],,8x-4[16:2]/3x-1[16:2],,8xqq6[16:2]/3xv6[16:2],,8x/3x,,
{8}4/5,,1/2,3/8,,7/8,1-4[16:2]/6-3[16:2],,
{8}1b-7[16:2]/6b-8[16:2],,1/6,,1/5,1/5,2/6,4/8,
{8}3b/7b,,7/8,1/6,,1/2,3/8<4[4:1],,
{4}4>8[4:1],8<4[4:1],C1f,,
{8}Ch[16:4]/5h[16:2],,6h[16:2],Ch[16:4],7h[16:2],,Ch[16:4]/8h[16:2],,
{8}8h[16:2],Ch[16:4],7h[16:2],,Ch[16:2]/6h[16:2],,Ch[16:2]/5h[16:2],,
{8}Ch[16:4]/4h[16:2],,3h[16:2],Ch[16:4],2h[16:2],,Ch[16:4]/1h[16:2],,
{8}1h[16:2],Ch[16:4],2h[16:2],,Ch[16:2]/3h[16:2],,Ch[16:2]/4h[16:2],,
{8}Ch[16:4]/7h[16:2],,7h[16:2],Ch[16:4],7h[16:2],,Ch[16:2]/7h[16:2],,
{8}Ch[16:4]/2h[16:2],,2h[16:2],Ch[16:4],2h[16:2],,Ch[16:2]/2h[16:2],,
{4}C,C,C,C,
{4}A4/A5,A3/A6,A2/A7,A1/A8,
{1},
{1},
{1},
E
