&title=月 feat. ヰ世界情緒
&artist=Guiano / ヰ世界情緒
&first=-0.14
&des_5=kano
&lv_5=13+
&des=kano
&inote_5=(138){4},,,5,
6/4h[4:1],7<3[1:1]*-3[8:3],,,,3>7[4:3],
,4,
3,2v5[2:1]*<5[1:1],,,,5p4[8:5],
,3x,
2x,1h[2:3],,,,7bh[2:1],
{8},,,,B2/B1/E2,
B7/B6/E6,E1,E2,E3,E4,E8,E7,
E6,E5,1,2,3,4/7,8,8,
{4}2h[4:1],4-8[2:1]*qq5[1:1],,,,7h[4:3],
,5,
{8}4,4,6,5p1[2:1]*>1[2:1],,,,,,,{4}8<5[2:1],
,2,
3,{8}4h[8:1],5h[8:1],{2}3h[1:1],
{4},5bh[2:1],,3,
2/6,8p4[2:1]*<4[2:1],,,,5h[2:1]/3h[2:1],
{32},,,,,,,,,,,,,,,,E4,
B3,{16}B2,{32}B5,B6,{16}E7,(159){4}1b,{8},,6,5,
5,7h[8:1],1,1,2,3/8,5,6,
7/3,2,1/8h[8:1],2,5/3h[8:1],6,4/7h[8:1],3,
2/6,6/2,5,3,4,5/6,{16}1,8,{8}1,
7/2,{16}8x/1x,7x/2x,{8}6x/3x,4x,5/3,2,{16}7,7,{8}4,
5/6,8,{16}2,1,{8}2,3/8,8/3,{16}4,7,{8}5,
6,6,6x/5x,5,5x/4x,4,{16}3,4x,{8}3,
2p6[2:1]*<6[2:1],5/3,,,,,,,(157.8){4}8b,
{16}7x,6x,5x,4x,1x,2x,3x,4x,8x/5,7x,6x,5x,
2x,3x,4x,5x,E1,E8,E7,E6,E2,E3,E4,E5,E8,E7,E6,E5,
E1,E2,E3,E4,{8}7,8h[4:1],,1,2,2/7,
2/7,3/8,3/8,8/3,7/4,7/4,{16}5,6,5,6,
{8}4x,3x,{4}1x/2-5[8:1]*-7[8:1],{8}A2f,,,8/4,
{4}8/4qq5[2:1],{8}7,7-1[8:1],,,,8xh[4:1]/4xh[4:1],
{16},,,,,,6x,5,6x,4,5,3,6x,5,7,4x,
5,3,4x,3,4,2x,5,3,7x,5,{8}6xh[4:1],1,1,
2/8,8/2,3>8[16:3],5p8[4:1],,,,,2,
3,4>1[8:1],4<7[8:1],,,2x,2,
8,7/3,6>3[8:1],6-3[8:1],,,,1,
8,3/7,{16}6,4,{8}6,5,3/4,2,5/6,
8,1/7,2>5[8:1],5p1[8:1],,8,7p3[8:1],7,
{4}1>4[8:1],{8}8/1,7<4[8:1],,7/8,{4}1-7-3-8[8:3],
{8}5,5,{4}6-3[8:1],6/1-4[8:1],1/8,
{8}7,5,1/6,{16}7,6,{8}5/3,{24}1,8/2,7/3,6/4,5,,,,,{8}7/3,
7/3,8-4[8:1],7,3-1[8:1],2,7<4[8:1],7,
{16}3,2,{8}1,8x,7/1,3,4/5,6-1[8:1],7,
4-1[8:1],3,7<4[8:1],7,8,1,2v7[8:1],2,
5<8[8:1],5,{16}1,2,{8}3,4,5b/3b,6,8/1,
3,4/2,{4}8v3[4:1],3<8[16:5],{8}1,1,
{4}2h[4:1],{8}1x,1>6[4:1]*q6[4:1],,,,,B3/B4/E4,
B7/B8/E8,,1x,{4}1/B6/B5,{8}7x,7/B2/E2,
,4/3,{4}5h[4:1]/2h[4:1],{8},8/4,(158){4}3/7-3[8:1],
7<4[8:1]/3>8[8:1],A7f/A3f,{8},1/5,{4}5/1-5[8:1],
7/1<6[8:1],{16}4,3,2,1,8,7,6,5,{4}4/8p4<2[2:1],
{8},1,2,3,4-8[8:1],5,7-3[8:1],6,
1>4[8:1],{16},,,,D6,D7,D8,D1,D2,D3,{8}4x/8x,1x,
2x,3/4,{4}5/4-1[8:1],6/4-7[8:1],3/4>1[8:1],
6/4<7[8:1],{32}A1,A2,{16}A3,{8}3xh[4:1],,5,6/2,7,
8/4,8/4,2-6[8:1],6-2[8:1],7,7,8-4-8[4:1],8,
1,2,3,4,5/2,1/7,{4}6/1v4[8:1],
7/1v6[8:1],1/Cf,{8},8/4,4/8-4[8:1],5,
{4}2/8>3[8:1],{16}5,6,7,8,1,2,3,4,{4}5/1q5>7[2:1],
{8},8,7,6,5-1[8:1],4,5b/2-6[8:1],3,
2b/8<5[8:1],{16},,,,3,2,1,8,7,6,{8}5/1,8x,
7x,6/5,{24}7/E5,E4,{6}E3,{24}5,,,4/3,,,2/E6,E7,{6}E8,
{8}2,8/1,{24}E8/E2,E7/E3,{6}E6/E4,{24}5x/4xh[4:1],,,5x,,,{8}7h[8:1],6,
1,2/8,{4}3/7>2p6[2:1],{8},,,,,4,
{16}E4,E3,E2,E1,E8,E7,E6,E5,8,1,2,3,
4,5,{8}6/2,{4}8b/4b,{8},,6h[8:3],4,
,3,2h[8:3],8,,7,6/3,7/4,
5/3,2h[8:1]/4h[8:1],,8/7,8/7,C,2/1,2/1,
B3/E3,8,7,6/2,3,4,{16}7,6,{8}5,
1,1h[8:1],{4}Cf,{8}7,7h[4:1],,5,
{4}7/5h[4:1],{8}4z8[8:5],3,2,1>5[4:1],,,,,,7,
7,6/5,2,3,
4/2,{16}1,6,5,6,3,4,3,4,3,4,{8}2/5,5/2,
6/3,6/3,{4}7p3[4:1],3>7[4:1],7<4[4:1],
4p8[8:3]*>8[8:3],{8}A3,A2,{4}A1,2p5[4:1],
5p7[4:1],{8}7>4[8:3],7x,,,,,7,
8,1,2/7,,4/3,2/5-1[8:1],6,
2>7[4:1],3,{4}7<2b[4:1],{8}1,1,8,7,
{4}6-3[8:1]/2-7[8:1],6-1[8:1]/2-5[8:1],6x/2x,7b/3b,
{8}5s1<5[8:7],4z8>4b[4:3],,,,,,,,,,8/1,
7/2,6/3,4-2[8:1],3,
1-5[8:1],8,1-3[8:1],7,1<6[8:1],4,1,5,
{24}1x,2x,3x,7/4x,,,{8}8-3[8:1],2,8<5[8:1],5,8,4,
{24}8x,1x,2x,3x,,,{8}1x<6[8:1],1,2,3,4>1[8:1],4,
5,6w2[8:1],,,,7x/5x,4/6,3/5,
2/6,2/6,8-5[8:1],2,{4}8<2[4:1],{24}E8,E7,E6,E5,E4,E3,
{8}E2,8b,1-5b[8:1],7,{4}1>7[4:1],{24}E2,E3,E4,E5,E6,E7,
{8}E8,1bx/8bx,E6/E5/B5f,3x/2x,,B1/B2/E2f,{4}6x/5x,
{8}7/2,{32}8b/1b,7x/2x,6x/3x,5x/4x,,,,,,,,,,,,,{8}6/2,{4}8v5[8:1]/4v1[8:1],
8V24[8:1]/4V68[8:1],A8f/A4f,{8},2/6,1q5[4:1],6/3,
5>1[4:1],7,1-5-2[8:3],{16}8,7,{8}6,6x,{4}6V84[4:1],
{8},1x,2>4[8:1],1,7-3[8:1],8,5-2[8:1],5,
{16}1x,8x,7-3b[8:1],6x,{8}5x,7b/3b,,2-8[8:1],8-4[8:1],8,
7,6,{4}5-7[8:1]*-8[8:1],5-2[8:1]*-3[8:1],5-1[8:1],
5w1b[8:1],5b/Cf,{8},7/3,2-5[8:1],8-4[8:1],
2,8,1,1q5p1-7-5[8:7]*>5[4:1],,,,,,,{4}5>1[4:1],
1<5[4:1],{16}5V71[4:1],4,{8}3,
{4}1w5[8:1],A1f,{8},2>5[8:1],1,2<7[8:1],
8,2,{16}6,5,4,3,2,1,8/4,7/3,{4}6b/2b,
{8},7/5,8-5[8:1],1,2-6[8:1],1,4-7[8:1],4,
{16}8x,1x,2-6b[8:1],3x,{8}4x,2b/6b/Cf,,8/4,7/3,6/2,
1/5-1[8:1],5/1-5[8:1],,,,2-6[8:1],{4}2/6-2[8:1],
{8},8V64[8:1]*-5[8:1],{4}8,{8},2,{16}1,2,3,4,
5/8,7,6,5,{4}4h[1:1]/8h[2:3],,,,,,4-7[8:1],
4/1>6[4:1],6>1[4:1],{8},8,{4}7V53[4:1],
{8},3,{4}2pp5[8:3],{8},1,8,7,
6,5,{4}4h[1:1]/3>8-3-5pp5qq5[1:1],{8},,,,,,,,,7,
{4}8-4[8:1],
{8}8/1,2,{4}3p7[4:1],{8}7<3[4:1],5x,{4}3v8[4:1],
{8}8>3[4:1],2x,{4}3<6[4:1],{8}6x,7,8,1,
2,3,{4}4h[4:5]/7p3<7>8>1>2>3[1:1],,,,,,1-5[8:1],
1/5,{8}7<4[8:1],1,7-3[8:1],2,1-5[8:1],8,
1-4[8:1],7,1<6[8:1],5,1,4,{4}1/5V71[4:1],
1>5[4:1],5>1-5-8-4[8:7],{8},,,,,,,,,2/6,
{4}8-4[8:1],
{8}8/4,3,2>5[8:1],{16}8,8,{8}2-6[8:1],7,8-4[8:1],1,
8-5[8:1],2,8>3[8:1],4,8,5,{16}8/4,7,6,5,
4/8,3,2,1,{4}8h[4:3]/4-6-3-7-2-8[8:7],{8},,,,,,,,,6,
5,4/8,
1,2,{4}7b/3b,{8}8h,,,4h,
{4}4h,7h,{8}2h,,,6h,
{4}6h,{8}4,4,{4}4/5,{8}6,6,
6,5/6,2,2,2,3/1,4,5,
6/2,7,{4}8b/4b,{8}7h[2:1],,,4h,
{4}3h,2h[4:3],{8}5,,,7h,
{4}7h,{8}C,8x/4x,{4}8x/4x,{8}2/6,2/6,
,8,2,7,1,6,4,5,
3,3,{4}5/4>1-4[4:5],{8},,,,,,,,,,,,E8/B7,
Ch[8:11],,,,,,,,,,,,,{4}6,
7,{8}8,1,{2}5/2>5-2[4:3],
{4},,,8,
5/6,{8}7/4,3<8[1:1]/8p3[1:1],,,,,,,,,,,,,1b,
1b,
E
