&title=Mourning, Stagnant.
&artist=saaa
&first=0.82
&des=The Past.
&lv_5=13+
&des_5=
&inote_5=(131)
{4},,,,,,,,,,,,,,,,,,,,,,,,
{8}35,,,,,4,5h[4:6],,4,,4<2[4:5],,4,,,,,,,,,,,,28,,,,,8,1h[4:3],,8,,8<3[4:5],,8,,,E8,B1,C,E3,,,,,{16},2,{8}2pp5[4:5],,,,,,6,,7,,8,,1<4[4:5],,,D2,A2,D3,E2,E3,E4,B2,B3,B4,C,,,,,5,5v2<6[4:4],,3,3,4,4,5,,,,,,B5h[4:3],,,,,,(262){4}D3,,
(131){8}3h[8:3],1,8,7,6h[8:3],4,3,2,1-5[8:1]/7-3[8:1],,,,6>3[8:1],,6<1[8:1],,6
,,1,{16}5,5,{8}2,3,47,5,1^6[8:1]/6,,4^1[8:1],,7^4[8:1],,2,,
{8}3h[8:3],5,6,7,8h[8:3],4,3,2,1-6[8:1]/2-5[8:1],,,,4>1[8:1],,4<7[8:1],,4
,,3,{16}7,7,{8}2,1,82,7,1V35[8:1]/6,{16},8,{8}1,8z4[8:1],,,{8},1bv4[48:19]/8bv5<4[4:6]b,{4}
{16},,,,,,,,,,,,2,,,,3h[4:1],,,,,,,,2h[8:1],,,,3h[8:1],,,,4h[8:1],,,,53,,2,2,6,,7,,83,,1,,2/5^8[8:1],,,,2^5[8:1],,,,7^2[8:1],,,,4^7[8:1],,,,1
,,,2,2,,1/2h[8:1],,3,,8/2h[8:1],,6h[4:1],,,,,,16,,8,7,,,7h[8:1]/8,,2,,7h[8:1]/1,,3,,7/2,,,,68,,7,7,1,,2,,36,,4,,8/5x-2[12:1],,,7x-4[12:1],,,1x-6[12:1],,,,,4b>4-2<7-5-3>1-7<5[4:8],,,,,
,,,,,,,,,,,,,,,,,,,,,,,,,,,,,,,,{32}A4,A3,A2,A1,A8,A7,A6,A5,D5,D4,D3,D2,D1,D8,D7,D6,E5,E4,E3,E2,E1,E8,E7,E6,B5,B4,B3,B2,B1,B8,B7,B6,
(131){4}Cf,,{16}2b/6b,,,,3p5[16:3]/5,,4,,35,,,,8w4[8:1],,,,A8f,,,,35,,,,{12}A6,E6,B5,B4,E4,A3,{16}Cf/B1/B8/A8/D8/A1/D2/A2/A7/D3/D7,,,,3-5[8:1],,5-1-7[8:2],,3,,,,6,,,,B3f,,,,5,,,,
{16}36,,4,5,4^1[8:1]/5^8[8:1],,36,,A4/A5/D5f,,,,3h[4:1],,1,,1<8-6v7-5>4[8:5],,,,13,,,,3v4[8:1]/B6f,,,,,,,,2bh[4:2]/6xh[4:1],,,,,,,,B5/B4f/B3/E4/E5,,,,18,,27,,36,,5,3h[8:1],,6,4h[8:1],,E6f,,7-3[8:1],,3V16[4:3]b*V15[4:3],,,,
{16},,,,,,,,,,,,,,,,3b/7b,,,6,4<7[8:1],,3,,2/4-1[8:1],,3,,5,5,,,26,,,3,5>2[8:1],,6,,5-8[8:1]/7,,,,1v6[8:1]/5,,2,,13,,,2,4>1[8:1],,5,,6/4-7[8:1],,5,,3,3,,,62,,,7,5<8[8:1],,4,,5-2[8:1]/3,,,,8v3[8:1]/5,,7,,86,,,6,4<7[8:1],,3,,2/4-1[8:1],,3,,5,5,,,26,,,3,5>2[8:1],,6,,5-8[8:1]/7,,,,15,,2,,{32}1/3h[8:1],8x,7x,6x,5x,,,,2,,,,8/2h[8:1],7x,6x,5x,4x,,,,1,,,,61,5,4,3,2,1,8,7,{16}5xbw1[8:8]b/6xbw2[8:8],,
,,,,,,,,,,,,,,,,,,,,,,B1/B2/B3/B4/B5/B6/B7/B8/Cf,,,,,,,,
{16}1bh[16:2],5,5,2bh[16:2],6,6,3bh[16:2],7,7,4bh[16:2],8,8,5bh[16:2],,C,,{32}8b,,5,6,5,,7b,,4,5,4,,6b,,3,4,3,,5b,,2,3,2,,4bh[16:2],,,,C,,,,25,,25,,36,,36,,47,,47,,8,7,6,,1,,7,6,5,,1,,1b-5[128:1]b,,,,,,,,
{4}1b/Cf,,{32}4h[32:1],,4h[32:1],,4h[32:1],,4h[32:1],,4xb,,,,,,,,
{16}2-4[8:1]/5<8[8:1],,,,25,,,,3b/8b,,,{48}2/8x,7,6,5,,,8x,7,6,5h[8:1],,,,,,{16}7x,,,{48}1x/7,2,3,4,,,1x,2,3,4h[8:1],,,,,,{16}2b,,,{48}E6,E7,E8,,,,E4,E3,E2,,,,,,,{16}8x,4,E7,2x,5,E4,7x,E2,8b,,,{48}7/1x,2,3,4,,,1x,2,3,4h[8:1],,,,,,{16}2x,,,{48}8x/2,7,6,5,,,8x,7,6,5h[8:1],,,,,,{16}8b,,,{48}E3,E4,E5,,,,1xp8[16:5]b,8x,7x,6x,,,,,,{16},,,,,,,,1b/7b,,,{48}1/7x,6,5,4,,,7x,6,5,4h[8:1],,,,,,{16}7x,,,{48}2x/8,3,4,5,,,2x,3,4,5h[8:1],,,,,,{16}2b,,,{48}E6,E7,E8,,,,E4,E3,E2,,,,,,,{24}8,,5,6,4,5,3,,2,4,,5,3b,,,{16},{48}7/1x,2,3,4,,,2x,3,4,5h[8:1],,,,,,{16}2x,,,{48}8x/2,7,6,5,,,7x,6,5,4h[8:1],,,,,,{16}7b,,,{48}D2,D3,D4,,,,D8,D7,D6,,,,,,,{16}3h[8:1]/5bv8[8:1],,,,3h[8:1]/5,,,,3h[8:1]/7b<4[8:1],,,,3h[8:1]/7,,,,2h[8:1]/4b-1[8:1],,,,2h[8:1]/4,,,,2h[8:1]/8bV64[8:1],,,,2h[8:1]/8,,,,3bx-8[16:1]/4,,,5bx-2[16:1],,,7bx-4[16:1],,,1bx-6[16:1],,,{12}2b,2,2,
{24}2b,3,4,5,6,7,{16}1,3,5,7,{12}2,3,4,{8}5,6,(121)7h[2:1],3xh[16:1],3xh[16:1],3xh[16:1],{16}E4,,{24}6xh[24:1],,6xh[24:1],,6xh[24:1],,6xh[24:1],,6xh[24:1],{24},,,E4h[96:3],,,E4h[96:3],,,E4h[96:3],,,E4h[96:3],,,{16}8h[24:1],,2x,,2x,,
{32}E6,E5,E4,E3,E2,E1,E8,E7,B2h[96:1],B3h[96:1],B4h[96:1],B5h[96:1],B6h[96:1],B7h[96:1],B8h[96:1],B1h[96:1],Ch[4:5],,,,,,,,,,,,,,,,,,E2h[16:11]/B1h[16:11]/B2h[16:11]/B5h[16:11]/B6h[16:11]/E6h[16:11],,,,,,,,,,,,,,,,,,,,,,,,,,,,,,{4},,,,,,,(116),,,,,,,(119),,,,,,,,{8},3<6[1:3],{4},,,(116),,,,(119),,,,(115),,,B6,{8},
(118){4}3h[4:1],4h[4:1],5h[4:1],6h[4:1],2h[4:2],,3h[4:1],4h[4:1],{8}6,5,4,3,6,5,4,3,(122){4}7h[48:46],(126)E2,(130)E3,(262){4}E4,,
(131){8}3,3,3,3,34,3,34,3,7,7,7,7,75,7,57,7,
{16}56,,5,,56,,5,6,5,6,5,,56,,45,,43,,4,,43,,4,3,4,3,4,,43,,4,,
{32}Cf/4xb<1[8:2]b,5x<2[8:2],6xb<3[8:2]b,7x>4[8:2],{8}8xb>5[8:2]b,,,,,,,2,1,8,7,4b-8[8:1],,4bw8[8:1]b/Cf,,
{8}4b/Cf,,1>5[8:1],1,B7f/E7/E8,,8<4[8:1],8,B2f/E3/E2,,3>7[8:1],3,B5f/E5/E6,,6,4,
{16}B5/A5,B3/A3,B7/A7,B1/A1,B6/A6,B4/A4,B8/A8,B2/A2,Cf,,,,35,,46,,
5/7x<3[8:1],,,,2,,1,,8bV64[8:1],,,,3,,2,,
1bh[8:1]/3xh[4:1],,,,{24}1,3,1,3,1,3,{16}A8/E1f/D1/E8,,,,47,,36,,25,,4,2h[8:1],,7,5h[8:1],,Cf,,7-3[8:1],,3w7[4:3]b,,,,
{16},,,,,,,,,,,,,,,,2b/6b,,,7,1<6[8:1]/7,,2,,3/1-4[8:1],,2,,81,8,,,37,,,2,2/8>3[8:1],,7,,8-5[8:1]/6,,,,4-7[8:1]/8,,3,,42,,,3,3/1>4[8:1],,8,,
7/1-6[8:1],,8,,21,2,,,7b/3b,,,6,8<5[8:1]/6,,1,,8-3[8:1]/2,,,,5-2[8:1]/8,,6,,57,,,
7,1<6[8:1]/7,,2,,3/1-4[8:1],,2,,1/8,8,,,3b/7b,,,2,2/8>3[8:1],,7,,
8b-5[8:1]/6b,,,,48,,2,,
{32}8b/6h[8:1],1x,2x,3x,4x,,,,3b,,,,5b/3h[8:1],6x,7x,8x,1x,,,,1b,,,,3b/1,4,5,6,7,8,1,2,
{8}4xb-8[4:16]b/3xb,,,,,,,,,{16},{8},,,,,,D7,B6,B3,D3,D7,B6,B3,D3,D7,B6,B3,D3,D7,B6,B3,D3,
