&title=sacred sacrifices
&artist=ak+q
&first=0.06
&lv_5=14
&des_5=id
&inote_5=
(162){4},,,,{16}2,
4,{8}3,{16}6,5,{8}7,4/3,6/5,{4}B2/B3/E3/8<5pp2[2:3],
,,,,,,,{16}5/2,
{8},{32}3,4,
{8}3,{16}6/5,6/5,,8,7,1,6,2,{8}5pp7pp1pp3b[8:7],{4}3qq1qq7qq5[4:3],
{1},{4}7h[4:1]/3h[4:1],
{32}E7,B6,{16}B5,{8}B3/E3,{4}1/E7/B6/B7,{16}6,5,6,5,
{8}7,{16}3/4,3/4,{8},{16}B6/E7,{32}E3,B3,{8}B4,{16}7,5,{4}6pp4b[4:1],
{16}6,3,{8}3h[8:1],,3/4,{16}7/5,{8},{16}6/5,{8}6/5,{16}6,4h[32:1],
5,3,{8}4,{4}5/2,{8}2,3/4,5,6,
{4}7/8,{32}8,7,8,7,{8}8,7/8,6/5,{4}3/4,
{16}3,4,{8}2,{16}7p4[4:5],8,6p3b[8:9],1,{2}C,
{1},{4}7h[4:1],
5h[4:1],6h[4:1],4h[4:1],
5h[4:1],3h[4:1],1h[4:1],2h[4:1],
8h[4:1],1h[4:1],7h[4:1],5h[4:1],
6-2[8:1],6/4-7b[8:1],4/5-2[8:1],5/3-7b[8:1],
3/8-4[8:1],8/2-5b[8:1],2/7-4[8:1],7/8,
{8}3,{16}7,5,{8}6,{16}3,4,{8}2,{16}6,4,5,3,7,5,
{8}6x,{16}7,8,{8}7,{16}2,1,{8}2,{16}4,3,5,4,6,5,
{8}7x,{16}2x,4,2x,4,3x,5,3x,5,4,6,{8}5,{16}7,5,
{8}6x,{16}3x,4,3x,2,3,4,{8}3,{16}6,5,{8}7x,{16}2,4,
{8}3x,{16}6,5,7,5,6,5,{8}7,{16}3x,4,2x,4,3,4,
{8}2,{16}6x,8,7,1,8,2,{8}1x,{16}3,4,{8}2,{16}7,5,
{8}6,{16}1,8,1,8,1,8,{32}2pp8b[4:1],3,{16}4,{32}8,7,6,5,{8}4/2,5,
6,{16}3,4,{8}2h[8:1],{16}7,8,{8}6h[8:1],{16}4,5,{8}3h[8:1],{16}8,1,
{8}7h[8:1],{16}4,5,{4}3h[8:1],5/2v5[4:1],5>1b[4:1],
1V35[4:1],5>1b[4:1],C,{8}6,7,
8/3,{16}6,5,{8}7h[8:1],{16}2,1,{8}3h[8:1],{16}5,4,{8}6h[8:1],{16}1,8,
{8}2h[8:1],{16}5,4,{4}6h[8:1],4/7v4[4:1],4<8b[4:1],
8V64[4:1],4<8b[4:1],C,{8}4,{32}4/8,7/3,6/2,5/1,
{8}8/4,{16}2,1,{8}3h[8:1],{16}6,5,{8}7h[8:1],{16}1,8,{8}2h[8:1],{16}5,4,
{8}6h[8:1],{16}1,8,{4}2h[8:1],8/3v8[4:1],8>4b[4:1],
4V28[4:1],8>4b[4:1],C,{8}7,6,
5/2,{16}7,8,{8}6h[8:1],{16}3,4,{8}2h[8:1],{16}8,1,{8}7h[8:1],{16}4,5,
{8}3h[8:1],{16}8,1,{4}7h[8:1],1/6v1[4:1],1<5b[4:1],
5V71[4:1],1<5b[4:1],C,{8}2pp5[2:1],1,
{4}2,5x>1b[4:1],{8},7,{4}7p6[4:1],
7/1>4b[8:1],1xp7[4:1],1,{8}3qq4b[4:1],2,
3/7qq1[4:1],6,{4}7,C,{32}8/1,7,{16}6h[16:3],{8}5,
{4}5qq2b[4:1],5/7<4-7[4:1],7-5-1b[4:1],2-5[8:1],
{8}2,8,7,6,{4}5/1>4b[8:1],{8}1/6,7-3[8:1],
,7/4,{4}5w1b[8:1],,{16}6,7h[16:3],{32}8,1,2,3,
{8}4-8[8:1],3,4/2-5b[8:1],1,2/6-1[8:1],7,6/4-8b[8:1],3,
4/7-3[8:1],6,7/1-5b[8:1],2,1/8,{16}8,7,4/6,3,2,1,
{8}8/4,{16}7/1,6/2,{4}5pp4[8:3]/3qq4[8:3],{2},{8}5/3,
{16}4,5,3,6,2,7,{8}1,{16}6,5,{8}7,{16}2,4,
{8}3,{16}8,7,6/4,3,2,1,{8}8/4,{16}7,5,6,4,{32}8,7,6,5,
{8}3/4h[4:3],{16}3,2,1,8,7,6,5,{32}E6,E7,E8,E1,E2,E3,{8}E4,C,
{1}2pp8[2:5],
{8},,,6,{2}5-8b[1:1],
{1},{2}3h[2:5],
{8}E1,E7,E2,C,
E6,{4},{16}E8,C,{2}E4,
{8},,,,,2,1,8,
{1}7p4[2:3],
{8},,,{16}2,3,{8}4p2b[4:5],{4},{8}8,
7,6,{4}5-1[8:1],5,{8}8,{16}8,7,
{4}6,{8}6h[8:1],4h[8:1],5h[8:1],3h[8:3],{4}4h[8:3],
,{8}2>5b[8:1],1,2,7-4[8:1],8,7,
2-5b[8:1],1,2,7<4[8:1],8,7,8,1,
{12}5,5,5,4,4,4,6,6,6,3,4,2,
6,5,7,2,1,3,7,8,6,3,5,5,
4,6,6,2,8,8,1,7,7,2,3,4,
7/5,6,5,4/2,3,4,{4}5/6h[4:1],{12}3,5,1,
7,5,1,3,4,2,7,5,6,2,4,8,
6,2,8,4,6,1,5,5,4,3,3,4,
{16}2,3,4,5,8,7,6,5,1,8,7,6,{8}5/1>4b[8:1],8,
7,6<1[8:1],5,4,3<6b[8:1],2,1,8>3[8:1],
7,6,5<8b[8:1],4,3,2-5[8:1],1,8,
7-2b[8:1],6,5,4-7[8:1],3,2,1-4b[8:1],8,
7,6-1[8:1],5,4,{4}3-1-7[8:1]*-8[8:1],3-5-7[8:1]*-6[8:1],
3,{16}8-4b[8:1],{8},{16}1,{8}8,3,2/1,3,
4/5,6,{16}8,7,6,5,3/4-8[8:1],2,{8}1,8/4,{16}2,1,
2,1,{8}2,{16}7,8,7,8,{8}7,{16}4,5,{8}4,{16}6,5,
6,5,{8}6,{16}3,4,3,4,{8}3,{16}8,1,{8}8,7/2,
{16}3,5,4,5,{8}3,{16}7,5,{8}6,8/4,{16}2,3,2,3,
{8}2,5/4,{16}7,6,7,6,{8}7,{16}2,4,{8}3,{16}6,5,
{8}7,{16}2,4,{8}3,{16}7,5,6,4,5,3,{32}1,8,7,6,{16},3,
4,3,4,{32}2,3,4,5,6,7,8,1,2,3,4,5,6,7,8-2-5b[8:3],1,2,3,{4}4-6-1[4:1],
{2},{4}1-6[8:1]*<6[8:1],1>4[8:1]*-4[8:1],
1w5b[8:1],1,{8}8/7v4[8:1],6,7/3>8b[8:1],2,
3/6pp4[4:1],{4},{8}2,{4}3-7b[8:1],2/3,
{8}2pp1[4:1],3,2/6pp4b[4:1],7,{4}6,C,
{32}8/7,1,2,3,{16}6,4,{8}5-7[8:1],6,5/4-2b[8:1],3,5-1[8:1]/4-8[8:1],6,
{4}5-7[8:1]/4-2[8:1],4/5,{8}B7/B6/E7,E3/B3/B2,{4}C,
{8}1/8,{16}7,2,{32}5,4,{16}5,3,6,{8}2-5[8:1],1,2/8-4b[8:1],7,
8/4,3,2/5,{16}3,4,2,5,3,4,{8}2,{16}6,5,
{8}7,{16}1,8,1,7,1,6,{8}1,{16}5,3,{8}4,{16}2,4,
3,5,4,6,{8}5,{16}7,8,{8}7,{16}3,1,2,8,1,7,
5,6,4,5,{8}3,{16}6,5,7,4,6,5,{8}7,{16}3,4,
{8}2,{16}7,5,{8}6,{16}3,4,3,4,3,4,{8}2h[4:1],{32}1pp8[4:1],8,7,6,
{8}5,1,4,5,6,{16}8,7,8,7h[16:3],{32}6,5,4,3,
{8}2v5b[8:1],5-3-8[8:1],{4}2,7qq3b[4:1],{8}7,1,
{4}2>5[8:1],2/1<6b[8:1],1/5xqq2[4:1],5/E7/B6/B7,
{8}6pp5b[4:1],7,6/2pp8[4:1],3,{4}2,C,
{32}8/7,1,2,3,{16}6,4,{4}5-1b[8:1],1>2-4[8:1]/5<6-8[8:1],5/1w5[8:1],
1,{8}8/7<4b[8:1],6,7/8,2,{32}2/1h[8:1],3,4,5,{8}6,
,{32}7/8h[8:1],6,5,4,{8}3,1/5,{2}7v4[8:1]/3-8[6:1],
{8}5-8[8:1],6/4,5/3,{16}3,4,1,8,5,6,{8}4-1b[8:1],5/3,
4/6,{16}6,5,8,1,4,3,{8}5-1[8:1],6/4,5/3,{16}2,8,
5,6,3,4,{32}8,7,6,5,4,3,2,1,{4}4/8h[4:1],4w8b[8:1],
4,{8}5-1[8:1],6,5/7-4b[8:1],8,7/3-8[8:1],2,
{4}3-6[8:1]/7-2[8:1],3/7,{8}8-4[8:1]/1-5[8:1],{16}6/3,7/2,{4}8/1,
{8}3,2,5/6,7,{24}1,5,1,5,1,5,{32}1,8,7,6,5,4,3,2,
{16}1h[4:1],8,7,6qq4qq2qq8qq6b[16:45],{4}Cf/5bxqq3qq1qq7qq5[1:2],
E
