&title=都是你们害得我 Pt.2
&artist=吉他张
&first=0.02
&des=我一直在哭
&lv_5=法
&des_5=我一直在哭
&inote_5=
(200){4},B1/B8/E8/B7/B6/E6/Cfh[8:27],{16},,,,,,,,,,,,,E8,
,B1,,E7,,,E6,,,A5,
,B4,{32},,,B6,,,,,{8}B8,{16},D1,{32},,,D8,,,,,,B7,,,,,{16}A6,
,,5,,,5,,,{8}5,{1},{4},{16},3,
,5,,4,,,{8}5,6b,{16},6b,,,{1}6b,
{24},,,,,,,B1,,,{12}B7,B3,B5,{24},E4,,,{6}E7,
{16}2,,,3,,,{8}4,5,6b,,6b,
{16},,,,,,,,,,3,3,{8}5,4,
{16}6,,,6,,,7,6,5,4,,3,,,{8}3,
{16}Cf,,,Cf,{48},,,,,,,,{12}Cf,{48},,,,,,,,,,,,,,,{16}6,6,4,
{32},5,,,,3,,,,,{16}3,,,2,3,4,5,,6,,6,
{48},,,,{12}Cf,{48},,,,{16}Cf,,,Cf,,,,,,,,,,B1/B8/E8/B7/B6/E6/Cf,
,,,,,,,,,,,,,,{4}B1/B8/E8/B7/B6/E6/Cf,
,,B8/B1/B6/E6/B7/E8/Cf,
{8}5/2,3,7/4,6,1/5,{16}3,4,{8}3,2,
1/6,7,8/3,2,{4}8-5[16:1]/1-4[16:1],{8}8b/1b,{16}3,2,
{8}1/7,6,5/4,3,8/2,7/5,3/4,{16}6,5,
{8}6-1[8:1],7,6/4-8[8:1],3,{4}4,{8}1b/5b,2,
6,6h[4:1],5,5h[4:1],4,4h[4:1],3,3,
4,2/5,8/1,{16}3,4,{4}2w6b[8:1],2,
{8}8-5[8:1],7,8/2-6[8:1],3,{4}2/1,{24}4,3,2,1/7-3[8:1],,,{8}6,
7/1-5[4:1],2,1/5w1[4:1],,,,,7-5[8:1],
7,8,8,1-7[8:1],1,2,{16}2,3,
4/5,6,7,8,{8}1-6[8:1]/2-5[8:1],3/8,{4}2/1,{32}4,3,2,1,{8}8/5-7[8:1],
6,5/4-2[8:1],3,4/8-4[8:1],8,6-1[8:1],6,5,
{4}5,{16}4/3,5,6,7,8/1,2,3,4,{4}6b/5b,
{8}7/3,7/3,6-2b[8:1]/2-6b[8:1],5-1[8:1]/1-5[8:1],,,,,7/3,
3/7,8-4b[8:1]/4-8b[8:1],5-1[8:1]/1-5[8:1],,,,,{4}8<5[16:1]/1>4[16:1],
A8/A1/D1f,8>3b[16:1]/7<4b[16:1],A7/D8f/A8,
1b<6b[16:1]/2b>5b[16:1],D2f/A1/A2,{32}1/5,6/2,7/3,4/8h[8:1],5,6,{16}7,{4}1b,
{8}3/4,3,6/5,6,6/4,3,5/3,6,
6/4,{16}5,4,{8}3/5,4,3/4,5,6x/5x,5x/4x,
4b/3b,3,5/6,6,6/4,3,{16}5/3,4,6,4,
5,4,{8}3,5,6,5x/4x,4/3,3x/2x,2/1,
8b/1b,2,8/1,7,8/2,{16}1,8,{8}7/1,{16}8,7,
{1}6/8bw4b[2:1],
{8}6,6,5/4,4,3,3h[4:1],4,5,
6/4,6h[32:13],5,{32}3,2,1,8,{16}7,{32}5,4,3,2,1,8,{4}7b,
{16}1/6,2,3,4,{8}5,5,{4}7v4[4:1],4q2[4:1],
{1}2<6[2:1],
{16}8/3,7,6,5,{8}4,4,{4}2v5[4:1],5p7[4:1],
{2}7>3[2:1],{16}5b,,,5b,,,{8}6bh[8:5],
{16},,,,,,,,,,,,,,,,2,
5,4,5,4,6,{8}5,7,7,{4}7,
{16}7,4,5,4,5,3,{8}4,2,2,2,5,
{4}1<5[4:1],{16}5>1[4:1],A8,A7,A6,8,7,6,5,{4}4,
8-5-2v7-4[2:7],,,3,
,,{2}3,
{1}1x-6-4b[2:3],
{4},,,,3-8-5-1-6[2:7],
,,4,
,,4,3,
{1}2xv8-6b[2:3],
{2},,3,
3,
4,{6}4,{12}4x,5,6,7,
{2}8,8,
1,1h[4:9],
{12}Ch[4:7],,,,,,,B7,{48},{16}B8,,B2,,,B3,
,,B4,,,{8}B5,{16},B3,,,{4}B1,
{32},,,,,,,,,,,,,,,,8b/1b,2/7,6/3,5/4,,,,,,,,,,,{16}B4,
,B6,,B3,,B8,,B1,{32},,,,2b/8b,3/7,6/4,5,,,,,,,,,,,{16}B5,
,B2,{48},,,,{6}B7,{24}B8,{96},,,,,,,,7b/1b,,,6/2,,,{32}5/3,4,,,,,,,,,E5,
,,E6,,,,B3,,,,E7,,,,,{8}C,{32}2b/8b,3/7,6/4,5,,,{16}1bx,{32},,2bx/8bx,3/7,
6/4,5,,,,,,,,,,,,,{16}1b,,1b,,1b,,,{8}1b,
{16},1bx,1x,1x,1x,1bx,1x,1x,{2}1bxw5b[4:3],
{8},,,,,,,,4/3,
5,5/3,4,{2}2-4[8:1],
{8}6/5,4,4/6,5,{2}7-5[8:1],
{8}4/3,3,2/4,3,{2}2-4[8:1]/1-4[8:1],
{8}6/5,7,8/2,7,6/4,5/3,{4}4/2,
{8}3/4,2,1/7,2,3/5,4/6,{4}5/7,
{8}7/8,6,5/4,6,7/1,8/2,{4}1/3,
{8}2/1,3,4/5,3,2/8,1/7,{16}8/6,1,2,3,
{8}4/5,6,7/8,1,2/4,5,6/7,5,
4/3,2,1/7,6,5/4,8/1,7/2,6/3,
{16}4,5,4,5,4,5,4,5,3,5,4,5,3,5,4,6,
4,5,3,6,4,5,2,5,3,8,4,6,1,2,3,4,
{8}5b/6b,6,6/4,4,5/3,3,{16}5,4,6,5,
{8}4/6,3,4/3,5,6/5,6,4/3,{32}3,4,{16}3,
{8}6b/5b,6,6/4,4,5/3,3,4/3,3/5,
{16}6,5,6,4,5,3,{8}6,{32}4,5,{16}4,{8}3,{32}6,5,{16}6,,,{8}4b/3b,
3,3/5,5,4/6,6,{16}4,5,3,4,
{8}3/5,6,5/6,4,3/4,3,5/6,{32}6,5,{16}6,
{8}4b/3b,3,3/5,5,4/6,6,5/6,5,
5/4,4,4/3,3,{16}2x/8x,1,8,7,6x/8x,7,6,5,
{8}3b/4b,3,4/5,6,6/4,4,4b/3b,5b/4b,
6b/5b,6,6/4,5,5/3,3,3b/4b,6b/5b,
3b/4b,3,4/5,6,6/4,4,4b/3b,5b/4b,
6b/5b,6,6/4,5,{16}3b,5,4,6,5b,6,4,5,
{8}3bh[4:7],,,5,{2}6,
{8}5,,,5,{4}6,{16}6,5,{8}4h[16:1],
2,2,{16}5,4,{8}6,7,7,{16}4,5,{8}3,
1/2,8,7,6,5/4,3/1,5/4,6/8,
{1}4bh[2:3]/2bh[2:3],
,{4},,{16},,{24},C,
,,C,,,{12}C,
{96},,,,,,,,,,,,{32}3b,4,5,6,{4},,{16},,{8}C,
C,C,{32},,,,2b,3,4,5,,,,,,,,,,,,,,,,,{16}B2,
B7,{8}B5,{32},,,,1b,2,{16}3,{32},,5b,6,{8}7,{16}4,8,4,8,
4,8,3,7,3,7,3,7,2,6,2,6,2,6,1,5,
1,4,1,3,1,2,1,8,{32}1,2,3,4,5,6,7,8,{4}1b,
{16}2b,8,2,8,2,8,2,8,3,6,4,5,3,7,1,6,
2b,4,2,4,2,4,2,4,3,5,1,6,8,7,1,6,
8b,7,8,7,8,7,8,7,1,5,2,4,3,5,4,6,
3b,7,3,7,2,8,2,8,1b,1,1,1,{4}1,
{16}2b,4,3,5,4,5,3,4,2,5,3,6,4,7,3,6,
4b,5,4,5,4,5,4,5,2,4,3,7,4,5,2,6,
1b,5,2,6,3,7,4,8,3,7,2,6,{8}1b/Cf,7b/Cf,
2b/Cf,8b/Cf,3b/Cf,7b/Cf,{4}1bxw5[8:1],Cf/B1/B8/B7/B6/B5/B4/B3/B2,
E
