&title=Whirlwind
&artist=Xyonite
&first=-0.72
&lv_4=12+
&des_4=Lukazio
&inote_4=
(180){4},,,,{1}4/5h[1:2],
B3,
Cfh[1:1],
{8}B7,,,1x,,,{4}2,
{1}5/4h[1:2],
B6,
Cfh[1:1],
{8}B2,,,8x,,,{4}7,
{1}5h[8:1]/4>8[4:1],
4h[8:1]/5<1[4:1],
{16}7h[8:1]/2h[8:1],,,7xs3[16:7]/2xz6[16:7],,,,,,,,,,,,,{4}2x/7x,
{8}6,3/6,,5,{4}4/5,
{1}4h[8:1]/3>7[4:1],
5h[8:1]/6<2[4:1],
{16}8h[8:1]/1h[8:1],,,1x>4q2[16:7]/8x<5p7[16:7],,,,,,,,,,,,,{4}6x/3x,
{8}2,7/2,,1,{4}8/1,
2b/8h[4:3],E2,{8},2,{4}2,
3b/4h[4:3],E3,{8},3,{4}3,
6b/4h[4:7],E6,{8},6,{4}6,
{8}B6/E7,,,B7/E8,,,{4}B8/E1f,
7h[4:1],{8}1,2h[8:3],,4,4,5,
{4}6h[4:1],{8}4,3h[8:3],,1,1,8,
7b-3[8:1],,,2b-6[8:1],,,{4}5h[1:1],
{8}E3/B3,,,B2/E2,,,{4}E1f/B1,
7h[8:3]/2h[8:3],{16},,,,,,,,1,8,1,8,
{4}1xp4[8:3],{8}7,7,,,6,7,
{4}8xq5[8:3],{8}2,2,,,3,2,
{4}1,{8}3,4/3h[4:1],,,{4}3/4h[4:1],
5-1[8:1],{8}6,6v3[8:1],,,{4}4,
4x/5xp8[8:3],{8}3,3,,,2,3,
{4}4xq1[8:3],{8}6,6,,,5,6,
7<4[8:1],,,3h[4:1],,8,{4}8qq5[2:1],
E2,E3,{8}E4f,{16}4x,5x,{8}4x,6b/3b,
{4}6x-1[2:1],5,{8},,2,2,
{4}1x-4[2:1],8,{8},,5,5,
{4}4x-7[2:1],3,{8},,1,1,
{4}2h[4:1],{8}3,3h[4:1],,4,{4}5h[4:1],
3x-8[2:1],4,{8},,7,7,
{4}8x-5[2:1],1,{8},,4,4,
{4}5x-2[2:1],6,{8},,6,7,
{4}1/8xh[2:1],1,{8}1,{16}1x,8x,{4}2b/7b,
{8}B1/E2,{16}E3,B3,{8}B4,8,8,7,6,5,
E8/B8,{16}E7,B6,{8}B5,1,1,2,3,4,
6x/3x,{16}4,5,{8}4,4,3,2,1,8,
2bh[4:1]/7bh[4:1],,,1bh[4:1]/3bh[4:1],,,{4}8b/6b,
{8}8bx/1bx,{16}B8,B7,{8}B6,4,4,3,2,1,
8bx/1bx,{16}B1,B2,{8}B3,5,5,6,7,8,
1x/8x,1,2,3,4,5,6,7,
{4}7bx-3[16:1],8bx-4[16:1],1bx-5[16:1],2bx,
{2}2-5[16:1]*-6[16:1],{8}3,4,5,6,
{2}7-4[16:1]*-3[16:1],{8}6,5,4,3,
{4}2v5[8:1],1h[8:5],{8}4,4,3,2,
{4}1-6[8:1],{8}2,2-5[8:1],,7,{4}8b,
{8}1/8,{16}3,4,{8}3,{16}3,4,{8}3xh[8:3],5,6,7,
8/1,{16}6,5,{8}6,{16}6,5,{8}6xh[8:3],4,3,2,
1/8,{16}7,2,{8}7,{16}3,6,3,6,4,5,4,5,4,5,
{4}4b>2[4:1],2b<8[4:1],8b<6[4:1],6b,
{1}Cf,
,8-4[2:3]/1-5[2:3],
,3-7[2:3]/6-2[2:3],
,B7/B6/B2/B3/Cf,
E
&lv_5=14
&des_5=Lukazio
&inote_5=
(180){4},,,,{1}B7/B6/Ch[1:3],
7,
8,
{8}1,,,2,,,{4}3,
{1}B2/B3/Ch[1:3],
2,
1,
{8}8,,,7,,,{4}6,
6h[8:1]/4h[8:1],{16}A6/A4,B6/B4,C,B8/B2,{2}A8/A2,
{4}2h[8:1]/8h[8:1],{16}A2/A8,B2/B8,C,B5,{2}A5,
{16}5h[8:1],,,5>5[16:7],,,,,,,,,,,,,{8}4x/8x,
3,2,5/1,6,7,4/8,3,
{4}6h[8:1]/3h[8:1],{16}A6/A3,E7/E3,B2/B7,B8/B1,{2}E1,
{4}1h[8:1]/8h[8:1],{16}D1,E1,C,E5,{2}D5,
{16}7h[8:1]/1h[8:1],,,7-2-7[16:7]/1-4-1[16:7],,,,,,,,,,,,,{8}8x/1x,
2,3,4/5,6,7,{4}2/7bv2<3[8:33],
7b/2b,3x,{8},3,{4}3,
3b,3x,{8},2,{4}2,
2b,2x,{8},1,{4}1,
1bh[8:1],{8}1,8bh[8:1],,8,{4}7b<3[8:1],
7b,{8}2/1,2xh[8:3],,1,8b,7,
{4}8/7xh[8:3],{8}6b,8xh[4:1],,7,8/1,2,
{4}2/8-4-7[4:1],{8}8/2,2-6-3[4:1],,2,{4}5bw1[8:1],
{8}5b/Cf,{32},,,,,,,,2,3,{16}4h[16:9],{32},,,,,,,,6,7,{16}8h[16:3],,,{8}B4/B8,
,,B2/B6/Ch[8:3],{16},,,,5,6,7,8,
{4}2b/1b-5[8:1],{8}1/8,8>4[4:1],,8/5,6,7,
{4}8-4[8:1],{8}8/1,1<5[4:1],,1/4,3,2,
{4}8h[4:1]/1v3[8:1],{8}1,1xv7[8:1],,1,2,3,
{4}3h[4:1]/4V68[8:1],{8}4,4xV28[8:1],,4,5,6,
{4}7b/8b-4[8:1],{8}8/1,1<5[4:1],,1/4,3,2,
{4}1-5[8:1],{8}1/8,8>4[4:1],,8/5,6,7,
{4}1h[4:1]/8v6[8:1],{8}8,8xv2[8:1],,8,7,6,
{4}4/5V31[8:1],6/5V71[8:1],{8}5/4,{16}3,2,{4}1x/Cf,
1b/8b<4[4:1],{8}C,1,{4}8>4[4:1],{8}C,7,
{4}8<4[4:1],{8}C,1,{4}8>4[4:1],{8}C,7,
{4}8,{8}C/7-2[16:1],7,,1-6[16:1],{4}1/C,
8b/2b>5[8:1],{8}2/1,1b-5[8:1],,1/8,{4}8b,
8b/1b>5[4:1],{8}C,8,{4}1<5[4:1],{8}C,2,
{4}1>5[4:1],{8}C,8,{4}1<5[4:1],{8}C,2,
{4}1,{8}C/2-7[16:1],2,,8-3[16:1],{4}8/C,
1b/7bp3[8:1],7b/1bq5[16:1],{8}1b/7b<5b[16:1],{16}4,3,{8}7/2,1b/8b,
4x,{16}4>4[2:1],5,{8}4,{16}A4/E5,A3,A2,A1,A8,3/A7,2/A6,1/A5,{8}8/A4,
3x,{16}3>3[2:1],4,{8}3,{16}A3/E4,A2,A1,A8,A7,2/A6,1/A5,8/A4,{8}7/A3,
2x,{16}2<2[2:1],3,{8}2,{16}A2/E3,A1,A8,A7,A6,1/A5,8/A4,7/A3,{8}6/A2,
5bx/1bxh[4:1],4,5,3b/7bh[4:1],4,3,{4}6bh[8:1]/2bh[8:1],
{8}5x,{16}5<5[2:1],4,{8}5,{16}A5/E5,A6,A7,A8,A1,6/A2,7/A3,8/A4,{8}1/A5,
6x,{16}6<6[2:1],5,{8}6,{16}A6/E6,A7,A8,A1,A2,7/A3,8/A4,1/A5,{8}2/A6,
7x,{16}7>7[2:1],6,{8}7,{16}A7/E7,A8,A1,A2,A3,8/A4,1/A5,2/A6,{8}3/A7,
1/8b-4[8:1],7,8/1b-5[8:1],2,1/8,{16}8,8,{8}1-4[16:1],Cf,
1b-5[8:1],{16}7,8,{8}1<3[8:3],{16}A3/E4,A2,A1,A8,A7,A6,A5,A4,{8}A3,
8b-4[8:1],{16}2,1,{8}8>6[8:3],{16}A6/E6,A7,A8,A1,A2,A3,A4,A5,{8}A6,
1b-5[8:1],{16}2,8,1h[8:1],,,6/2,7/3,8/4,5/1,2,3,4,5,6,
{4}3b/7bV52[8:1],{8}7/3,3bV16[8:1],,3/7,{4}7b,
{8}5b-1[8:1],{16}3,4,{8}5>7[8:3],{16}A7/E8,A6,A5,A4,A3,A2,A1,A8,{8}A7,
4b-8[8:1],{16}6,5,{8}4<2[8:3],{16}A2/E2,A3,A4,A5,A6,A7,A8,A1,{8}A2,
5b-1[8:1],{16}6,4,5h[8:1],,,2/6,3/7,4/8,1/5,6,7,8,1,2,
{8}7b/3b-6[16:1],4,3b/7b-2[16:1],8,7b/2b,{16}3,3,{8}3b/4b,Cf/B6/B1,
{1}7b-2[2:3]/8b-5>4[2:3],
,Cfh[1:2]/1<4[2:3],
,5-8pp7[2:3],
,7>8-5[2:3],
{4},,,Cf,
E
