&title=Without Heaven
&artist=BEMANI Sound Team "ZAQUVA"
&first=0
&des=SJTU Chart Team "SMARTHH"
&lv_5=14+
&inote_5=(162){1},,
||
s
{16}1b>7[2:1]/7b,,,,
,,,,
,,,,
,,,,
{16}4/8q1[2:1],,,,
,,,,
,,,,
,,,,
{16}3h[2:1],,,,
,,,,
5h[2:1],,,,
,,,,
{16}6p3[2:1],,,,
7,,,,
8h[4:1],,,,
,,,,
{16}1pp6[2:1],,,,
7,,,,
5h[4:1],,,,
,,,,
{16}7qq8[8:3],,,,
4,,,,
2h[4:1],,,,
1,,7,,
{16}4h[4:1],,,,
7,,5,,
2h[4:1],,,,
6,,8,,
{16}1/5,,2,,
3/7,,6,,
5h[8:1],,4,5,
3b/6b,,,,
||
m
{16}2x/5x,,3,4,
3,,2/5,,
3,4,3,4,
2,,8/1,,
{16}7x/4x,,6,5,
6,,7/4,,
6,5,6,5,
7,,1/8,,
{16}2x,7,3,6,
4x,5,3,4,
2x,5,1,6,
8x,7,1,8,
{16}1bs5[8:5],,,,
,,,,7b-3b[8:1]
,,,,
7b,,,,
||
a
{16}1b,,2h[16:1],3h[16:1],
2h[16:1],3h[16:1],2h[16:1],3h[16:1],
1bx-7[8:1],,2,,
5bx-3[8:1],,6,,
{16}8bx-3[8:1],,1,,
4bx-7[8:1],,5,,
1bxw5b[8:1],,2,,
1bx,,,,
{16}1h[16:1],5h[16:1],2h[16:1],6h[16:1],
3h[16:1],7h[16:1],4h[16:1],8h[16:1],
5h[16:1],1h[16:1],4h[16:1],8h[16:1],
3h[16:1],7h[16:1],2h[16:1],6,
{16}1xs5[2:1]/5xV74-2[2:1],,,,
,,,,
,,,,
,,,,
{32}3x,4x,5hx[8:1],,
{16},6,
5,,1/8,,
{32}7x,6x,5hx[8:1],,
{16},4,
5,,8,,
{32}1x/7x,2x/6x,5x/3hx[8:1],,
{16},4,
3,,6/5,,
4h[8:1],,8h[8:1],,
2h[8:1],,6h[8:1],,
||
r
{16}8b,,3h[16:1],5h[16:1],
2h[16:1],4h[16:1],1h[16:1],5h[16:1],
8<5[8:1],,,,
8x/2x,,1,1,
{16}4h[16:1],2h[16:1],5h[16:1],3h[16:1],
6-3[8:1],,2-5[8:1],,
6-1[8:1],,2,,
6,,2,,
{16}4,,6h[16:1],4h[16:1],
7h[16:1],5h[16:1],8h[16:1],4h[16:1],
1>4[8:1],,,,
1x/7x,,8,8,
{16}5h[16:1],7h[16:1],4h[16:1],6h[16:1],
3-6[8:1],,7-4[8:1],,
3-8[8:1],,7,,
3,,5,,
{16}1bh[4:1],,,,
2>5[8:1],,,1,
2,,8,,
7h[4:1]/6,,,,
{16}8,,5/6,,
7<4[8:1]/4,,,8,
7,,1,,
2h[4:1]/3,,,,
{16}1b-5[8:1],,,8,
1,,6,,
7b-3[8:1],,,8,
7,,2,,
{16}1,7,2,6,
3,5,4,6,
3,7,2,8,
1b,,,,
||
t
{16}5/7,,3,4,
2,,6,5,
7,1,6,4,
8,,1/7,,
{16}4/2,,6,5,
7,,3,4,
2,8,3,5,
1,,8/2,,
{16}3x,5,4,6,
2x,5,4,7,
1x,6,4,8x,
3,5,1hx[8:1],,
{16}6x,4,5,3,
7x,4,5,2,
8x,3,5,1x,
6,4,8hx[8:1],,
{16}1,,3/7,,
4,6,5,7,
2,6,5,7,
3,,8h[8:1],,
{16}1,,6/2,,
5,3,4,2,
7,3,4,2,
6,,1h[8:1],,
{16}8,1,7x,1,
8,2x,7,1,
5x,2,8,4x,
6,1,4x,2,
{16}8h[4:1],,6,,
1h[4:1],,3,,
8-5[8:1]*-3[8:1],,1/7,,
8b,,,,
||
h
{16}4x/5x,,2,4,
3,,1/5,,
2,4,3,5,
1,,8/6,,
{16}4x/5x,,7,5,
6,,8/4,,
7,5,6,4,
8,,1/3,,
{16}4x,8,5,7,
4x,6,3,5,
2x,4,1,5,
{32}8x,7,6,5,
4,3,2,1,
{16}8bz4[8:5],,,,
,,,,2b-6b[8:1]
,,,,
2b,,,,
||
e
{16}8b,,{24}1b,7b,1b,
{16}7b,,2b/6b,,
3b/5b,,,,
5-7[8:1],,4,,
{16}3-5[8:1],,2,,
1-3[8:1],,8,,
7-1[8:1],,6,,
5,,4,,
{16}2b,4b,,7b,
5b,,{24}3b,6b,4b,
{16}5b,,,,
3-8[8:1],,4,,
{16}5-2[8:1],,6,,
7-4[8:1],,8,,
1-6[8:1],,2,,
3,,4,,
{16}2b/1b,8b/3b,,,
{12}6b/5b,,8b/7b,
2b/5b,,,
{16}8-6[8:1],,1,1,
{16}8-3[8:1],,5,5,
8<5[8:1],,2,2,
8,,4,4,
5/3,,6,,
{32}2b,3b,4b,,,,
7b,6b,
{12}5b,3b,7b,
{16}1b,,,,
2-6[8:1],,1,1,
{16}2,,7,7,
1,6,3,8,
5h[4:1],,,,
8,8,1,1,
||
h
{16}1b/7b<1[2:1],,,,
,,,,
,,,,
,,,,
{16}7<5p4[2:1]/4,,,,
,,,,
,,,,
3,,2,,
{16}1h[4:1],,,,
8,,7,,
6h[4:1],,,,
5,,4,,
{16}3h[4:1],,1x,,
1x,,1x,,
7hx[4:1],,{24}A5,A4,A3,
{16}A2,,7,,
{16}1x,,1hx[8:3],,
3,,3,,
4x-8[8:1],,,,
4/1,,,,
{16}7x,,7hx[8:3],,
5,,5,,
1x-5[8:1],,,,
1/8,,7,,
{16}6hx[16:3],,,5,
7,,4/8,,
3hx[16:3],,,4,
2,,5/1,,
{16}7x,8,6,,
2x,1,3,,
4x/5x,,1,8,
2b/7b,,,,
||
e
{16}4-1[8:1],,2,,
4x/6x,,,,
7-4[8:1],,5,,
7x/8x,,,,
{16}1-5[8:1],,5-1[8:1],,
7x<4[8:1],,7x-3[8:1],,
7>2[8:1],,,,
,,,,
{16}5-8[8:1],,7,,
5x/3x,,,,
2-5[8:1],,4,,
2x/1x,,,,
{16}8-4[8:1],,4-8[8:1],,
2x>5[8:1],,2x-6[8:1],,
2<7[8:1],,,,
,,,,
{16}4-8[8:1],,2,,
4x/7,,5,,
6-2[8:1],,8,,
6x/3,,5,,
{16}1-5[8:1],,3,,
1x/6,,8,,
7-3[8:1],,5,,
7x/2,,8,,
{16}2,5,1,7,
{24}5,6,5,
{16}6,3,
{16}7,4,8,2,
{24}4,3,4,
{16}3,6,
{16}1b,,,,
2b,,,,
3bw7b[8:1]/4b,,1/5,,
Cf,,,,
||
qu
{16}1b,,{24}2,3,4,
{16}5/6,,8,,
{24}4-7[8:1]/8,3/7,2/6,
{16}1-5[8:1]/5,,
4,,1,,
{16}8,,{24}7,6,5,
{16}4/3,,1,,
{24}5-2[8:1]/1,6/2,7/3,
{16}8-4b[8:1]/4,,
5,,8b,,
{16}1,,{24}2x,4,3,
{16}4-8[8:1],,5/6-2[8:1],,
4,,6,,
1,,{24}2x,4,3,
{16}4>1[8:1],,7<4[8:1]/8,,
4pp3[4:1],,7,,
1h[8:1],,,,
1b,,,,
{16}8b,,{24}7,6,5,
{16}4/3,,1,,
{24}5-2[8:1]/1,6/2,7/3,
{16}8-4[8:1]/4,,
5,,8,,
{16}1,,{24}2,3,4,
{16}5/6,,8,,
{24}4/8-3[8:1],3/7,2/6,
{16}1/5-1b[8:1],,
8b,,5b,,
{16}2,8,3,5,
1,7,4,6,
2,8,4,6,
1,7,3,5,
{16}1b,,{24}1/8,2/7,3/6,
{16}4/5<4[4:1],,3/6,,
4b/5b,,,,
1bx,,,,
{16}1b/7b,,{24}8<5[8:1],1,2,
{16}3,,{24}1,2,3,
{16}4,,{24}2/6-2[8:1],3/7,4/8,
{16}5/1,,7,,
{16}5h[8:1],,2x,5,
1-5[8:1],4,8<5[8:1],5,
1>4-8[16:3],,8,,
1,,5,,
{16}7b,,{24}1>4[8:1],8,7,
{16}6,,{24}8,7,6,
{16}5,,{24}7/3-7[8:1],6/2,5/1,
{16}4/8,,2,,
{16}2,1,6,5,
1>4[8:1],8,5<8[8:1],4,
1bs5[16:3],,5b,,
1b,,{24}5,6,7,
{24}8h[8:1],,,6,7,8,
1h[8:1],,,7,8,1,
2<7[8:1],,,4h[8:1],,,
2,,,3,,,
{16}1,7,3,5,
2,8,3,6,
4-8[8:1],,2-5[8:1],,
4,,2,,
{24}1,,,4,3,2,
1h[8:1],,,3,2,1,
8h[8:1],,,2,1,8,
7<4b[8:1],,,1/5,,,
{16}4/7b-2[8:1],,{24}3-6b[8:1],2,1,
{16}7b/8,,3b,,
1bw5b[12:1],,3b/7b,,
1b`Cf,,,,
