&title=The Endless For Traveler
&artist=Se-U-Ra
&first=-0.92
&lv_5=14+
&des=nns
&des_5=nns
&inote_5=
(200){4},{1},,{4},,,{32}1b/8b,
7/2,6/3,4h[32:13]/5<4[32:109],{4},,,{16},,{1}3h[2:1],
4h[2:1],
1h[2:1],
{4}5/3h[4:1],5qq2[8:3],{8},,,1,
,7/1qq6[8:3],,1,{2}7h[8:19],
{8},6h[16:1],,8h[16:1],,5h[16:1],,1h[16:1],
,4h[16:1],,2h[16:1],,3h[4:1],,,{4}6/4h[4:1],
7-4[16:3],{8}7,,,2/8h[4:1],
,1-5[16:3],,1,{2}8,
{4}3/5h[4:1],2-5[16:3],{8}2,,,7/1h[4:1],
,8-4[16:3],,8,{4}1,2h[8:1],
{8}6,6,4,4,8,8,2,2,
{16}6,5,7,4,8,3,1,2,{4}3b/8b,{8}1b/6b,3bqq8[8:11]/8bqq5[8:11],
,,,,,,,,,,,,,,{4}1b,
6/1h[4:3],6,6,{8}6,2h[8:3],
{4}6,{8}6,1h[8:3],{4}6,{8}6,3h[8:3],
{4}6,{8}6,4h[8:3],{4}6,{8}6,5h[8:7],
{4}6,7,8-4[8:1],8,
2/5h[4:3],2,2,{8}2,7h[8:3],
{4}2,{8}2,8h[2:1],{4}2,2,
{8}8/2,8-4[8:1],7,6/8b,,1-5[8:1],2,3/1b,
,4,5/3,6/2,{4}4w8[8:1],4b,
2/6h[4:3],2,2,{8}2,7h[8:3],
{4}2,{8}2,6h[8:3],{4}2,{8}2,5h[8:3],
{4}2,{8}2,4h[8:3],{4}1,{8}1,5h[8:7],
{4}1,8,7-3[8:1],7,
{8}4/2q4[4:1],5,6,7,8p6[4:1],1,2,3,
4,5v8[8:1],4,5bv2[8:1],,5b,,5b,
1h[4:1]/6-8[8:1],7,6,5,4-6[8:1],3,4,2,
1/7,5/3,6/2,6/2,{2}6v8[8:1]/2v4[8:1],
{8}5/2-5[8:1],2/5-1[8:1],,,{4}7h[4:1],1b,
{8}6/4,{16}6,8,{8}7,{16}3,1,{4}2h[4:1],6b,
{8}5/7v5[8:1],7/5-8[8:1],,,{4}2h[4:1],4b,
{8}7/8h[8:1],7,5h[8:1]/6-1[8:1],6,{2}6/4-8[8:1],
{8}6-1[8:1],1v3[8:1],{4}3-6[8:1],,2b,
{8}7/5,{16}6,6,{8}6,4/2,{16}3,3,{8}3,{4}4b/2b,
{8}2v7[8:1],7-5[8:1],{4}5v3[8:1],4b,5/2h[8:1],
{8}4,5,6-3[8:1]*-4[8:1],7,{4}6b-8[8:1]*-1[8:1],6b,
{12}2,3,4,5,6,7,4/8,5,6,7,8,1,
2/6,7,8,1/5h,2,3,4/8h,5,6,7/3h,8,1,
{4}2/6h[4:1],4,3h[4:1],5,
{12}6,5,4,3,2,1,8/3,4,5,6,7,8,
{4}1/5h[4:1],2,3h[4:1],7,
6h[4:1],5h[4:1],4h[4:1],3h[4:1],
4h[4:1],5h[4:1],6h[4:1],5,
8/7h[4:1],8,4/3h[4:1],4,
2/1h[4:1],2,6-1[8:1]/5-2[8:1],6/5,
8h[8:1]/3h[8:1],7h[8:1]/2h[8:1],1h[8:1]/6v3[8:1],6/1h[8:1],
1h[8:1]/4h[8:1],2h[8:1]/5h[8:1],6h[8:1]/3v8[8:1],3/6h[8:1],
1h[8:1]/7-4[8:1],7/1h[8:1],1h[8:1]/5-8[8:1],5/1h[8:1],
2h[8:1]/7-3[8:1],7/2h[8:1],{16}4/2h[8:1],,,5,{8}2h[8:1],6,
3,3,4,4,5,5,6,6,
2-5[8:1],2,6-1[8:1],6,4-7[8:1],4,8-5[8:1],8,
1-4[8:1],1,8-3[8:1],8,5-2[8:1],5,6-3[8:1],6,
4-1[8:1],4,7,7h[16:1],{4}2,8/1-4[8:1],
{1}1b/8bp5[2:1]*p5[2:1],
{32}7b/8h[8:1],6,{16}5,{32},,,,1b/8h[8:1],2,{16}3,{48},,,,,,7b/8h[8:1],6,5,4,,,,,,,,,1b/8h[8:1],2,3,4,,,,,,,,,{8}1/8,
{16}7,8,{8}6,{16}2,1,{8}3-7[8:1],4<3[4:1],3,4b,
{16},,,,,,2,5,3,6,4,7,{8}5b-3[8:1],{16}6,7,
{8}5-2[8:1],{16}7,8,{8}5-1[8:1],{16}6,7,8h[8:1],,,8b,,,{8}8/3b,
5/1,{16}3,4,{8}2,{16}7,8,{8}6,5,{32}6b,5,4,3,2,1,8,7,
{8}5/6,{16}3,4,{8}2,{16}6,5,{8}7-3[8:1],8>7[4:1],7,8b,
{16},,,,,,8/7,6/1,5h[8:1]/2h[8:1],,,3h[8:1]/5h[8:1],,,{8}5/4,
5b/4b,{16}6,5,{8}7,{16}2,1,{8}3-8[8:1],{16}8,7,{8}3-5[8:1],{16}7,6,
3b,,,6h[8:1],,,{8}7h[8:1]/3h[8:1],{16},2h[8:1]/5h[8:1],,,{4}7h[8:1]/4h[8:1],
{8}8/1,{16}2,1,{8}3,{16}7,8,{8}6-2[8:1],5>6[4:1],6,5b,
{16},,,,,,7,4,6,3,5,2,{8}4b-6[8:1],{16}3,2,
{8}4-7[8:1],{16}2,1,{8}4-8[8:1],{16}3,2,1h[8:1],,,1b,,,{8}1/6b,
4/8,{16}6,5,{8}7,{16}2,1,{8}3,4,{32}3b,4,5,6,7,8,1,2,
{8}4/3,{16}6,5,{8}7,{16}3,4,{8}2-6[8:1],1<2[4:1],2,1b,
{16},,,,,,1/2,3/8,4h[8:1]/7h[8:1],,,6h[8:1]/4h[8:1],,,{8}4/5,
4b/5b,{16}3,4,{8}2,{16}7,8,{8}6-1[8:1],{16}1,2,{8}6-4[8:1],{16}2,3,
{8}6,3h[8:5],,4,{4}4-8[8:1],4b,
{8}7/4,{16}6,5,{8}6,7,5/2,{16}3,4,{8}3,2,
6/1,{16}7,8,{8}7,6,{4}8-4[8:1]/3-1[8:1],3b/8b,
{8}3/8,{16}2,1,{8}2,3,1/6,{16}7,8,{8}7,6,
2/5,{16}3,4,{8}3,2,{4}4-8[8:1]/7-5[8:1],7b/4b,
{8}3/7,{16}6,5,{8}7,{16}3,4,{8}2,{16}6,5,{8}8,{16}3,4,
{8}1,{16}6,4,{8}8,{16}3,5,{4}1h[1:1],5h[8:1],
{1}4h[2:3],
8h[4:9],
3h[4:5],
{24},,,,,,,1/4,2/5,3/6,4/7,5/8,{8}6-3[8:1]/1-6[8:1],6/1,{4}1b/6b,
{8}4-2[8:1],{16}5,6,{8}7/4-8[8:1],{16}5,6,4b/7h[8:1],,,7b,,,{8}5/2b,
3/8,{24}1,2,1,{8}2,{24}4,5,4,{8}5,4,{32}5b,4,3,2,1,8,7,6,
{8}5/4,{16}3,4,{8}2,{16}6,5,{8}7-3[8:1],8>7[4:1],7,8b,
{16},,,,,,8/7,6/1,5h[8:1]/2h[8:1],,,3h[8:1]/5h[8:1],,,{8}5/4,
5b/4b,{16}5/4h[8:1],6,{8}7,{16}3/4h[8:1],2,{8}1,{16}6/4h[8:1],7,{8}8,{16}2/4h[8:1],1,
8b-4[16:1],,,2b-5[16:1],,,{8}7b-4[16:1],{16},1b-5[16:1],,,6b-3[16:1],,,2b-5[16:1],
,,{8}8b-4[16:1],{16},1b-5[16:1],,,7b-4[16:1],,,3b-6[16:1],{48},,,,,,,,,,,,{12}5,
2,6,3,7,4,8,5,7,4,6,3,
5,2,4,3,4,3,{24}4,3,4,3,4,3,4,3,4,3,{12}4h[12:7],
{4},,{64},,{32}5/3,6/2,7/1,{8}8w4[8:1],
E
