&title=神鳴
&artist=光吉猛修
&first=0.65
&des=Akimizu
&des_5=
&lv_5=14.9
&inote_5=(205){8},{48}8b<1[8:13]/1b>8[8:13],2b/7b,3b/6b,4b/5b,{1},{4},,,{12},,{8}E1,
B7,B2,B5,B4,C,1xh[4:5],
{1},{8},{24}B5,
B6,E7,{4}7x-3<5[4:3],,{8}A1,B1,
{4}Ch[4:3],{2},{8}1x,8x,
7x,6xh[8:3],{4},{8}4,5,3,4,
{1}2/1-6-4-7[16:17],
2b-6b[16:1],
{8},3b-7b[16:1],,3b,{4}8bw4[8:1],8b,
{8},{24}5b,6,7,8,1,2,3b,4,5,6,7,8,1b,2,3,4,5,6,7b,8,1,
2,3,4,5b,6,7,8,1,2,3b,4,5,6,7,8,1b,2,3,4,5,6,7b,8,1,
2,3,4,5b,6,7,8,1,2,3b,4,5,6,7,8,1b,2,3,4,5,6,7b,8,1,
2,3,4,5b,6,7,8,1,2,3b,4,5,6,7,8,1b,{3},{8}8,
1,2,3,{16}4,4,,3,{8}4,8/2,
,1,8,7,{16}6,5,,5,{8}6,7/1,
,8,7,6,5/4,{24}5,6,7,4/8h[8:3],3,2,1h[4:1],{4},{24}2/7,
3/6,{8}4/5,2b/7b,,1b/8b,1bh[8:1]/8bh[8:1],{32}E1,B8/B1,B7/B2,B6/B3,
{8}B5/B4,4h[8:3],5,6,7,3h[8:3],6,7,
8,2h[8:3],7,6,5,1h[8:3],6,5,
4,3/4,2,1/7,6,4/5,3,2/8,
6,4/5,6,{16}8,7,{8}8,6b/1b,2b/5b,4bh[8:1]/3bh[8:1],
,5h[8:3],4,3,2,6h[8:3],3,2,
1,7h[8:3],2,3,4,8h[8:3],3,4,
5,6/5,7,8/2,3,4/5,6,7/1,
3,{32}E5,B5,B6,E7,{8}A7,{32}E5,B4,B3,E3,{8}A2,{24}8,7,6,{8}5h[8:3],{24}1,2,3,
{4}4h[8:1],{8}4/5,6,8/2,3,4/6,7,
8/1,2,{16}4,5,{8}4,3/5,6,{16}8,7,8,7,
{8}1/6,2,3/7,4,1/5,3,2/6,7,
1/5,3,2/6,7,1/5,{24}8,7,6,5,4,3,2,1,8,
{4}4h[8:1]/7-3[16:1],{8}7,4h[8:1],,4/2,{16}3,2,{8}4,
1/7,6,3/4,5,2/8,3,{16}5,4,{8}6,
7/1,3,4/6,7,2/8,3,1/5,2,
3/7,{16}1,2,{8}3,{16}8,7,{8}6,{32}1,2,3,4,5,6,7,8,{8}5b/1bs5b[16:53],
,C,{1},,{4},,,{8},1-5[16:1],
,1,,4h[4:1],{4},{8},{16}8,
7,8,7,{8}6bx/1bx,,3-7[16:1]/7-3[16:1],,3b/7b/Cf,
,{16}1,2,1,2,{8}3bx/8bx,,6-2[16:1]/2-6[16:1],,6b/2b/Cf,
,{16}5,4,{8}6,5,5,4/6,{16}7,8,{8}1h[4:1],
,4,{16}4h,3,2/8h,7,6/1h,2,{8}3/5h[4:1],,1,
,{16}1bx,2bx,1bx,2bx,{8}3bx/8bx,,6-2[16:1]/2-6[16:1],,6b/2b/Cf,
,{16}8bx,7bx,8bx,7bx,{8}6bx/1bx,,3-7[16:1]/7-3[16:1],,3b/7b/Cf,
,{16}4,5,{8}3,4,4,5/3,{16}2,1,{8}8h[4:1],
,5,{16}5h,6,7/1h,2,3/8h,7,{8}6/4h[4:1],,8b,
,{16}8,7,6,1,2,3,7,6,5,2,3,4,7,6,
5,2,3,4,5,6,5,4,3,2,1,8,7,6,{8}5b,
,{16}1,2,8,7,2,3,7,6,3,4,6,5,3,4,
6,5,3,4,5,6,5,4,3,4,5,6,7,8,{8}1b,
,{16}8/2,3,4,5,6/1,5,4,3,2/8,3,4,5,6/1,5,
4,3,2/8,3,4,5,6/1,5,4,3,2/8,3,4,5,{8}1b/6b,
,{16}8b,4,8b,3,8b,2,8b,1,8b,7,8b,6,8b,5,
8b,4,8b,3,8b,2,8b,1,{8}8bh[4:1],{24}1,2,3,{8}4,{24}7,6,5,
{8}4,2-6[16:1]/6-2[16:1],{4},{8},8b/4b,{4},{8},6h[4:1],
,4,6,{16}4/6,3,2/5,1,8,7,
{8}6,4-8[16:1]/8-4[16:1],{4},{8},2b/6b,{4},{8},4h[4:1],
{4},{8}6,4,6,4,
{16}5,6,{8}7-3[16:1]/3-7[16:1],{4},{8},5b/1b,{4},{8},3h[4:1],
,5,3,{16}5/3,6,7,8,1,2,
{8}3,5-1[16:1]/1-5[16:1],{4},{8},{16}8,7,6,5,4,3,
2,1,8,7,{24}6xh[8:1],{6},{24}2xh[12:1],{8},5xh[12:1],{24},2xh[12:1],{8},{24}4xh[12:1],
{8},3V58-3[16:25],{1},{4},,,{8},1-5-3-1[8:13],
{1},{4},,{8},8,
,{24}8,,7,,6,,1,,2,,3,,8h,,7,,6/4h,,3,,2/5h,
,6,,7/1h,,2,,3/8h,,7,,6/4h,,3,,2/5h,,6,,7/1h,,2,,3/8h,
,7,,6/4,,3,,2/5,,6,,7,,8/4,,3,,2,,1/5,,6,,7,
,8/4bh,3,2,1/5,6,7,8/4,3,2,1/5,6,7,8/4,3,2,5x/1,6x,7x,8x/4x,3x,2x,1x/5x,6x,
7x,8x/4x,3x,2x,{6}5bh/1bh,{4},{12},,{8}8/7,6/1,
,1>4[16:1],{16},8,{8}1-5[16:1],{16},6,{8}1-3[16:1],{16},6,{24}1,,6x,
,7,,{8}8-4[16:1],{24},1,,{8}8<5[16:1],{16},3,{24}8,,1,,2,,3,,6,
,6,,3,,8,,7,,6,,1,,2,,3,,4,,2,,3,,4,
,5,,1,,1,,5,,2,,2,,6,,3,,4,,5,,8,,7,
,6,,{8}1-5[16:1],{24},6,,{8}1>4[16:1],{24},8,,{8}1-5[16:1],{24},5,,1-3[16:1],,6,
,7,,{8}1/8-6[16:1],{24},4x,,{8}8x,{24},1,,2,,3/7,,6,,5/1,,2,
,3,,7/4,,6,,5/2,,3,,4/8,,7,,6,,5/1,,2,,3,,4,
,5/8h,,7,,6,,5,,4/3h,,2,,1,,8,,7,,6,,5,,4,
,3,,{64}4bx,2xh,{16},,{96},{192}4bx,2xh,{16},,,{96},{64}4bx,2xh,{4},{16},{32},{64}8h,7b,{16},,{96},{192}8h,
7b,{16},,,{96},{64}8h,7b,{4},{16},{32},{24}2h,1,8,7,6,5,4/1h,2,3,
4,5,{12}6bw2b[2.2439##9.5122],{1},{4},,,{12},{1}6b,
,,,,,,,,{8},1-5-3-7[1:1],
{4},,,{8},7-3-5-1[1:1],
{4},,,{8},1-5-7-3[1:1],
{4},{8},8,{4},{8},3-7V15[1:1],
{4},,,{8},5-1-3-7[4:3],
{4},{8},5,{4},{8},1s5s1[1:1],
{4},,,{8},7,
{4},{8},8<4[1:1],{4},,,{16},1,
{4},{8}1-5[4:1],
,1,{4},{8},6,{4},{8},4/5<4[8:13],
,4,,5,,5,
,5,,5,,5,,5,
,5,,5/4,,5/6,6/7,8/7,
8/1,1-3[16:1]/8-6[16:1],,1-5[16:1]/8-4[16:1],,1b/8b,{4},{8},4-8[16:1],
4,5-1[16:1],5,6-2[16:1],6,7-3[16:1],
7,8-4[16:1],8,1-5[16:1],1,1/6-1[16:1],6,6/3-8[16:1],
3,3,7,1-3[16:1],8-6[16:1],1-5[16:1],8-4[16:1],1>3[16:1],
8<6[16:1],1v4[16:1],8v5[16:1],1,8,{16}1,2,3,4,5,6,
7,8h[16:17],{1},{32}4bx,
5bx,6bx,7bx,8bx,1bx,2bx,3bx,4bx,5bx,6bx,7bx,8bx,1bxh,2bxh,3bxh,4bxh,5bxh,6bxh,7bxh,8bxh,1bxh,2bxh,3bxh,4bxh,5bxh,6bxh,7bxh,
{8}8bh,{16}2,4,{8}2,{16}7,5,{8}7,{16}2,4,{8}2,{16}7,5,
{8}7,{16}1,3,1,3,2,4,2,4,3,5,3,5,3,2,
1,7,6,5,4/1,2,3,4,5/2,3,4,5,6/3,4,5,6,
{8}7/4,{16}8,6,8,6,7,1,7,1,8,2,8,2,8,7,
6,5,{8}4h[8:1],1,3,,{16}1,{48}8,7,,{24}6,5,4,3h[8:3],{12},{8}1h[4:1],
{4},{16}1,3,2,4,3,5,{8}4h[8:1],6,
4,5/4h[8:3],{4},{16}6,7,{8}8h[4:1],{4},{8},1-5[16:1]/2-4[16:1],
,2-6[16:1]/1-7[16:1],,2-4[16:1]/1-5[16:1],,2b/1b,
,{16}7,5,{8}7,{16}2,4,{8}2,{16}7,5,{8}7,{16}2,4,
{8}2,{16}8,6,8,6,7,5,7,5,6,4,6,4,6,7,
8,2,3,4,5/8,7,6,5,4/7,6,5,4,3/6,5,4,3,
{8}2/5,{16}1,3,1,3,2,8,2,8,1,7,1,7,1,2,
3,4,{8}5h[16:3],{16},7,{8},{2}8h[8:3]/6h[8:3],
{8},{16}8,6,7,5,6,4,5,3,{8}4h[4:1],{4},{8}3h[2:1],
{2},{16}1b,1b,1b,1b,1b,1b,
{8}1b,2b/8b,7b/3b,4b/6b,5b,{16}4/6,7,8,1,2,3,
{8}4,1-5[16:1]/5-1[16:1],{4},{8},3b/7b,{4},{8},5h[4:1],
,4,4,4w8[16:1],,4,
,2-6[16:1]/6-2[16:1],{4},{8},4b/8b,,6,
,7h[4:1],,1,1,1w5[16:1],,1,
,6p2[16:1],,5-1[16:1],,4-8[16:1],,3q7[16:1],
,4-8[16:1],,5-1[16:1],,6p2[16:1],,5,
,8-4[16:1]/1-5[16:1],2/7,1/8,,4-2[16:1]/5-7[16:1],3/6,4/5,
,{24}8,7,6,1,2,3,7,6,5,2,3,4,7,6,5,2,3,4,8,7,6,
{16}2,3,{8}4bh[4:3],{4},,,{8},{16}5b,
6b,5b,7bx,7bx,7bx,{8},{16}4b,3b,4b,2bx,2bx,2bx,
{8},{32}8,7,6,5,4,3,2,1,8,7,{16},5,5h[16:1],,{32},3,{16},3,{8}3h[32:3],
{32},1,{16},{8}1h[16:3],{16},7,,{32},3h,{8},{32}6b,5h,4h,3h,2h,1h,8h,7h,6h,5h,4h,3h,
2h,1h,8h,7h,{8}6bV48-5-1-4b[8:13]/3b-5-1-4-8-5[8:13],{1},{4},,,{8},{32}1b/8b,
2b/7b,3b/6b,4b/5b,
