&title=Vanitas ac Redemptionis
&artist=Ary-You
&first=0
&lv_4=12
&des_4=Planetarium
&inote_4=
(191){4},{32},,,,4bx<2[4:5],5bxh[32:31],{1},{4},,,{16},,,{8}4h[1:1]/3>5[4:5],
,,,,,,,,,,,,,,,7h[1:1]/6V83<4[4:5],
,,,,,,,,,,,,,,,2h[1:1]/1V74>3[4:5],
,,,,,,,,,,,,,,,4bxh[8:7],
,5,,7h[8:1],
,8h[8:1],,1h[8:3],,,{4}2h[8:3],
{8},3,,5h[2:1],,2,,1,
,,7,7h[8:3],,,{4}5h[8:3],
{8},8,,1,7,2,6,3,
5,4,,7xh[4:1],,,{4}6xh[4:1],
{8},5xh[8:1],,B1,{24},E3,,,,E4,,,,,{12}E8,
,E7,{24},,B5,,,,,B4,,,,,C,,,,,B8,,,,,,,,,,,,{8}8,
,8,,6,
6,6,,5h[1:1]/4-2-7[4:3],,,,,,,,,,1h[8:3],
,,2h[8:3],
,,3h[8:3],,,{4}4h[8:3],
{8},5,,7,,7,,5,
5,5,,4,,4-1[4:1],,4,
,,,2,,2,,4/2,
,,4,3,5,6,3,2,
6,7,,1,,1,,3,
3,3,,4h[1:1]/5-7-2[4:3],,,,,,,,,,8h[8:3],
,,7h[8:3],
,,6h[8:3],,,{4}5h[8:3],
{8},4,,2,,2,,4,
4,4,,5,,5-8[4:1],,5,
,,,7,,7,,7/5,
,,D6,E5,D4,E3,{4}D2,
{8}E7,E1,,2-5[8:1],,6-1[8:1],,,,3,
,6h[4:1],,,{4}7h[4:1],
{8},8h[4:1],,,,4,,3,
{4}2/4,1b,{8},8h[4:1],,3h[4:1],
,6,,7-4[8:1],,3-8[8:1],,,,6,
,3h[4:1],,,{4}2h[4:1],
{8},1h[4:1],,,,5,6,5,
6,7x,8x,1xh[4:1],,,{4}6h[4:1],
{8},3b,,1,,3,3,2/5,
,6,6,4x/7x,{4}4x/7x,3h[4:1],
2h[4:1],{8}1-4-7[8:5],1xh[4:3],,,,,,,,5h[8:3],
,,{4}6h[8:3],
{8},7,,5/3,,6,{4}7/5,
{8},,2,2bx/1bx,,7b/8b,,6b/5b,
,4b/3b,,,,3/1,,8/6,
,2/8,,7/1w5[2:1],,,,,,,,3/4,
,7,{4}7,
{8}1,1,,5/6,,1,{4}1,
{8}3,3,,8/7,,3,{4}3,
{8}5,5,,1/2,,5,{4}5,
{8}7,7,,2/4,,7,{4}7,
{8}D8,E7,,7/5,,2,{4}2,
{8}D2,E3,,6/3,,5,{4}5,
{8}4,4,,B6/E5/B5/E6/C/E8/E2/B4/E3/B2/B1/E1/B8/B7/E7/B3/E4,,,,,,,,3h[4:1],
,2,,4h[4:1],
,1,,5h[4:1],,8,,6h[4:1],
,7,,5h[4:1],,6,,4h[4:1],
,7,,3h[4:1],,8,,2h[4:1],
,1,,1h[4:1],,8,,2h[4:1],
,7,,3h[4:1],,6,,4h[4:1],
,5,,3h[4:1],,4,,2h[4:1],
,5,,1h[4:1],,6,,7b,
7b,7b,7b,3,{4}6,{8}4,5,
,4,4,3,,1,,5,
,7,2,3,{4}6,{8}4,5,
,5,5,6,,,{4}8,
{8},4,2,7bx,,,,,,,,7bx/E7,
E6,E5,E4,E3,
E2,E1,,7bx/E8,,,,,,,,1b,
,Ch[4:1],,,,,,2>5[8:1],
,6<1[8:1],,,,3,
,6h[4:1],,,{4}7h[4:1],
{8},8h[4:1],,,,4,4,3,
{4}2/4,1b,{8},8h[4:1],,3h[4:1],
,6,,7<4[8:1],,3>8[8:1],,,,6,
,3h[4:1],,,{4}2h[4:1],
{8},1h[4:1],,,,5,6,5,
6,7x,8x,1xh[4:1],,,{4}6h[4:1],
{8},3b,,1,,4,4,5/2,
,5,5,7x/4x,{4}7x/4x,3h[4:1],
2h[4:1],{8}1p4p7[8:5],1xh[4:3],,,,,,,,5h[8:3],
,,{4}6h[8:3],
{8},7,,B2/8V64V28[4:13],,,,,,,,B8,
,,,,,,,B6,
,,,,,,,B4,
{16},,,,,,,,,,6x,
5x,4x,3x,{8}2x-6[8:1],,,,5,
5,1,1,3h[8:3],,,{4}5h[8:3],
{8},7,,8h[4:1],,5h[4:1],,2h[4:1],
,7h[4:1],,4h[4:1],,1h[4:1],,6h[4:1],
,3h[4:1],,7-3[8:1],,,,4,
4,8,8,6h[8:3],,,{4}4h[8:3],
{8},2,,2h[8:3],,,{4}4h[8:3],
{8},6,{16},,8x,1x,8x,1x,8x,1x,8x,1x,8x,1x,
8x,1x,{8}8x,,1x-5[8:1],,,,6,
6,2,2,4h[8:3],,,{4}6h[8:3],
{8},8,,1h[4:1],,4h[4:1],,7h[4:1],
,2h[4:1],,5h[4:1],,8h[4:1],,3h[4:1],
,6h[4:1],,8-4[8:1],,,,3,
3,7,7,1h[8:3],,,{4}7h[8:3],
{8},5,,5h[8:3],,,{4}7h[8:3],
{8},1,,8bx/6bx,,6bx/4bx,,4bx/2bx,
,2bx/8bx-4[8:1],,1-5[8:1],,,,7,
7,2,2,6h[8:3],,,{4}4h[8:3],
{8},1,,8,8,2,2,4,
4,6,6,7,7,5,5,3,
3,2x-6[8:1],,7-3[8:1],,,,1,
1,8,8,5h[8:3],,,{4}3h[8:3],
{8},8,,2h[4:1],,4,{4}4h[4:1],
{8}6,6h,{16},,8x,1x,8x,1x,8x,1x,8x,1x,8x,1x,
8x,1x,{8}8bx<6b[8:1],,1bx>3b[8:1],,,,5,
5,4,4,7h[8:3],,,{4}2h[8:3],
{8},7,,1,1,7,7,5,
5,3,3,2b,2b,4b,4b,6bx,
6bx,8bx,,8bx/3bx,{16},6bx/1bx,,,8bx/4bx,,,6bx/2bx,
,,{8}3bx/7bx,,4,4,5,5,3,
3,6,6,2,2,7,7,1,
1,8,8,{16}7x,6x,5x,4x,3x,2x,1x,8x,7x,6x,
5x,4x,3x,2x,1x,8x,{8}7bx<3[4:7]*>2[4:7],
E
