&title=vleermuis
&artist=gladde paling
&first=-2.27
&des=OAT
&lv_5=14+
&inote_5=(90){4},,,,(180){2}2s6[8:1],
8s4[8:1],
1s5[8:1],7s3[8:1],
{4}4,2,8,6,
7z3[8:1]/2z6[8:1],{12},,,,,,2,2,6,
{4}7/4-2v1[8:1],{8}5,5,{16}3,5,{8}4,3-1v8[8:1],4/6,
{4}5,{8}7,7,{16}6,4,{8}5,6-8v1[8:1],{16}7,5,
{4}6,{8}3,3,{16}5,4,{8}6,7v6-4[8:1],5,
{4}2,{8}3,3,{16}5,4,{8}6,2-4v5[8:1],4/6,
,,6,5/7,{16}3,5,{8}4,7v6-4[8:1],4/6,
{4}1x,{8}3,5/2,{16}6,4,{8}5,3-1v8[8:1],4/6,
{4}5x,{8}7,6/4,{16}3,5,{8}4,7-5v4[8:1],4/6,
{4}1,{8}2,3/5,{16}6,4,{8}5,{4}7b/3v2-8[8:1],
5b,{8}6,5/3,{16}2-4v5[8:1],4,{8}3,2v1-7[8:1],6,
{4}2x,{8}6,7/4,{16}6v7-1[8:1],5,{8}7,6-4v3[8:1],{16}2,2,
{4}6x,{8}1,2/4,{16}5-7v8[8:1],3,{8}6,5,2,
1xs5[8:1],{16}1,1,{8}1,1,{12}1,2/8,7/3,4v3-1[8:1]/6v7-1[8:1],{24},{8}1,
{4}4x/6x,{8}2,5/3,{16}6-8v1[8:1],6,{8}4,6v5-3[8:1],3,
{12}2/6,2,2,5/2,{24},{8}6,{16}3-1v8[8:1],3,{8}5,3v4-6[8:1],{16}6,6,
{4}3,{8}7,6/4,{16}3-5v6[8:1],3,{8}1,3v2-8[8:1],7,
{12}3/7x,7x,7x,1x,1x,1x,3x,3x,3x,5x,5x,5x,
{4}7z3[8:1],8z4[8:1],1z5[8:1],2z6[8:1],
3z7[8:1],4z8[8:1],5z1[8:1],1,
{12}3b,3/5,3,4,{24},{8}2,6/1b-3v4[8:1],7,{24}8/1,7,6,5,,,{12}6b,
6/4,6,5b,{24},{8}7,{4}3/8bv7-5[8:1],{24}1/8,2,3,4,,,{4}1xh[4:1],
{32}E2,B2,B3,E4,,,,,{4}8xh[4:1],{32}E8,B7,B6,E6,,,,,{4}4-2v1[8:1],
5v6-8[8:1],4v3-1[8:1],8b,
{8}8,1-3v5[8:1],{16}6,6,{8}1,{4}8v6-4[8:1],{8}8,1,
{4}3h[4:1],{12}5-7v8[8:1],,1,{8}5-2v1[8:1],3,{4}5,
{8}8,4-2v8[8:1],{16}7,7,{8}4,{4}6v7-1[8:1],{8}2b,2b,
{12}1,2,8,1s5[8:1],{24},{8}3/7,{4}1,{12}5,6,4,
{8}5,4-2v8[8:1],{16}7,7,{8}4,{4}5v7-1[8:1],{8}5,4,
{4}3h[4:1],{12}1v7[8:1],,2x,{8}1,2,{4}1v2-4[8:1],
{32}1s5[8:1],8,7,6,,,,,1-7v6[8:1],8,7,6,,,,,1s5[8:1],2,3,4,,,,,1-7v6[8:1],2,3,4,,,,,{4}1x-3v5[8:1],
1xv7-5[8:1],1x-3v4[8:1],1bx,
{12}6-4v3[8:1],6,6,1v2-4[8:1],1,1,7-5v4[8:1],7,7,2v3-5[8:1],2,2,
8,8,8,{48}8,,,7/1,,,{8}6/2,{16},3,,4,{8}5,6,
{12}5-7v8[8:1],6,6,1v2-4[8:1],2,2,7-5v4[8:1],8,8,1,{24},{8}2,
{4}3,{8}8/2,4/5,{4}7/1,{12}6,6,2,
{4}4b/2,{12}7/1,,8/2,{4}3,{12}4,,7/1,
{4}6,{12}5,,8/2,{8}3,7/1,{4}6,
{24}1,5,1,5,1,5,2,6,2,6,2,6,{4}7xh[4:1]/3v4-6[8:1],3,
{8}8v7-5[8:1],7,8/1-3v4[8:1],2,1,{16}6x,6x,{8}6x,6x,
{1}2b-6[4:13]*s6[4:13],
{4},,,,,,,,,,,2b,
7h[8:1]/1h[8:1],7h[8:1]/8h[8:1],7h[8:1]/6h[8:1],7h[8:1]/5h[8:1],
{16}4/7h[8:1],3,2,1,{4}7h[8:1]/8h[8:1],7h[8:1]/6h[8:1],7h[8:1]/5h[8:1],
{12}4/7h[8:1],3,2,1h[8:1]/7h[8:1],,,{4}6h[8:1]/8h[8:1],6h[8:1]/7h[8:1],
{12}5/6h[8:1],4,3,2h[8:1]/6h[8:1],,,{4}1b/7b,{8}8b/2b,5b/4b,
{4}1b/7bv6-4[8:1],8bv2-4[8:1],1bv7-4[8:1],2b-4v5[8:1],
1bv7-5[8:1],8bv2-5[8:1],7,{16}6x,6x,{8}6x,
{12}4,4,5,5/3v2-8[8:1],,,{4}3/5v6-8[8:1],1/5,
{12}1,1,8,8/2,{24},{8}6,5x/3v2-8[8:1],8x,5x/3,7x,
7b/1b,8b,6b/2bv3[8:1],4,8v6[8:1],6,4v3-1[8:1],1,
7v6-4[8:1],5,2v4[8:1],3,8v6-4[8:1],7,{16}1,2,{8}3,
3b/5b,8b/1b,6b/4b-2v8[8:1],8,4/6v4[8:1],7,6/1-7v6[8:1],3,
{12}5/1v3-5[8:1],5,5,5/1,{24},{8}7,{4}1w5[8:1],1b,
{8}7/1-3-5-2[8:1],5,{16}1/8v6[8:1],7,{8}6,8,{16}1v3[8:1],2,{8}3-8[8:1],1/5,
7v5-3[8:1],5,7/2v4[8:1],8,2/6v7-1[8:1],{16}6,6,,,{8}2,
2xv4-6[4:1],4,6v8-2[4:1],8,2v4-6[4:1],4,6v8-2[4:1],8,
2xv4-6[4:1],4x,6xv8-2[4:1],8x,{4}2x,7x,
{8}8/2,{16}6,5,{4}4/7,{8}7xs3[4:1],5,3z7[4:1],1,
7s3[4:1],5,3z7[4:1],1,7s3[4:1],5,3z7[4:1],1,
{12}5,4,3,2v3-5[8:1],{24},{8}2,8v6-4[8:1],8,1,1,
{12}2/8,3/7,4/6,5w1[8:1],{24},{8}7/3,{4}5,{32}1b,2b,3b,4b,5b,6b,7b,8b,
{4}5b/1b,{8}3/7,3,{16}6/4v2[8:1],3/6,{8}6/2-8[8:1],4/7v6-4[8:1],6,
{4}7,{8}6/8,6,{16}3/5v7[8:1],6/3,{8}3/7-1[8:1],5/2v3-5[8:1],3,
{4}2,{8}3/1,3,{16}6/1v3[8:1],2/6,{8}6/3-5[8:1],1/7v6-4[8:1],6,
7-1v2[8:1],{16}3,3,{8}3/7,3,{12}4,3/5,2/6,1/7,{48},,{16}8,1/7,
{4}2b/6b,{8}8/2,8,{16}7/5v3[8:1],4/7,{8}7/3-1[8:1],5/8v7-5[8:1],7,
{4}8,{8}2/4,3,{16}2/4v6[8:1],5/2,{8}2/6-8[8:1],4/1,2,
{4}2-4v5[8:1],7v6-4[8:1],1v2-4[8:1],8-6v5[8:1],
1h[4:1],5,{12}5/1,5/1,5/1,6/2,{24}7/3,8/4,{12}1/5,
{4}6x/2x,{8}B8,E7,{16}B2,B3,{8}B4,E6,E1/E3,
,,B1,E3,{16}B7,B6,{8}B5,E4,E1/E7,
,,B8,E7,{16}B2,B5,{8}B3,E6,E1/E3,
,,B1,E3,{16}B7,B4,{8}B6,E4,E1/E7,
,,{4}C,B4,E2,
,C,B5,E8,
,C,E3/E7,E6/E5/E4,
E
