&title=FIRE BIRD
&artist=Roselia
&first=-0.1
&des_5=kano
&lv_5=14
&des=kano
&inote_5=(160){4},,,,,4,
{2}6/3>5[2:3],
7,4,
{4}3,2,{2}1>6[8:5],
,8h[4:1],
{4}6/2,{8}7,6,{2}5/1pp6[2:1],
{8},,8x,8x,{4}2x,5/3,
1/7,{8}6/5,4w8[2:1],,,,,,,,,{2}8h[2:1]/1h[2:1],
{8},,7/2,6/3,{2}4/5-8[8:3],
{8}4,,,3-6[8:3],,,{4}7,
8,7/1,{2}6v3[8:3]/2-7[8:3],
,8h[2:1]/4h[2:1],
{8},,6/4-8>3[8:5],3,{2}2/4h[4:1],
{8},,8,7,{4}6/2v4[4:1],4v7[4:1],
7>2[4:1],2q5[0.375##0.9381],{2}7-4[0.375##0.5631],
{16},(159),{4},{16},,{24},6h[4:1]/3h[4:1],{4},{16},,,{24},{16}5h[32:9]/3h[32:9],
,,,,,,,,{8}2h[32:9]/4h[32:9],{16},,,,,,,1h[16:5]/3h[16:5],
{32},,,,,,,,,,,,,,,,,2h[8:3]/8h[8:3],,,,,,,,,,,,,,,,,,,{8}6/7,
{16},,,2/3,,,,,7h[16:5]/5h[#2.363863],
,,,,,,,,B7,E7,B6,E6,B5,E5,B4,
(158)E4,B3,E3,B2,E2,B1,E1,B8,E8,E7,E6,E5,E4,E3,E2,E1,
E8,E7,E6,E5,E4,E3,,,,2x/1x,,,,,{8}4x/8x,
,,{4}6x/5x,{32},,,,,,,B7/B2,,B6/B3,,E6/E4,,,,,,,,,,,,,,,{16}6/5,
,4,,5/3,,1h[16:5],{4}7h[4:1],
{8},,6/2,{16}7-3[8:1],1,,5x,{8}7b/Cf,{16},(150),,,,,,,{4}7,
8,8,
{32}A8,A7,A6,A5,A4,A3,A2,A1,{16}4xh[8:1]/A8,,,3xh[8:1]/7xh[8:1],,,{8}2V84[4:1]/6<3[4:1],,,,,7x/1x,
{16}6,6,{8}5,{16}3,4,{8}3,{16}7,5,
{8}6,7/8,{16}1h[8:1]/2h[8:1],,,3h[8:1]/8h[8:1],,,{8}6V84[4:1]/2<5[4:1],,,,,7/1,
{16}3,4,{8}2,{16}7,5,{8}6,2/1,
3/4,5/6,4,8,{16}2,2,{8}4,{16}6,5,{8}7,
8/4,4/8,{16}3,5,2,4,{8}1,3/5,{16}8,7,6,5,
{8}3/4>1[8:1],5/6,4,{16}7x,6x,{8}5<8[8:1],3,2,{16}1,2x,
{8}3h[4:1],7,8,{16}2x,3x,{8}4h[4:1],6,7,{16}8,7x,
{8}6x,{16}3x,2x,{4}1v3-5[4:1],{16}8,,,7,,,{8}6,
6,5/7,{4}5/3h[8:1],{8}4/7,{16}6,5,{8}6,3/4,
6/2,{16}7,7,{8}1-6[8:1],2,3,{16}4,3,{8}2-8[8:1],5-1[8:1],
2-6[8:1]*-4[8:1],5,{16},,,,B7,B3,{8}B5,{16}6x/B1,,,3x/E8/B7,
,,6,5,{4}7h[4:1],{8}1,{16}2-6[8:1],4,,,{8}2/1,
8,7,6q2[8:1],6,5,4,3<6[8:1],2,
1,{16}E1,E2,{4}E3/B6/E6/B5,{8},4-2[8:1],{4}2V86[4:1],
6>6[16:7],8xh[8:3],{32},,,,,,,,A5,A4,A3,A2,A1,A8,A7,A6,
{4}Cf,6/3-8[8:1],3/7-3[8:1],7/1-5[8:1],
1/6<3[4:1],B3/B4/E4,{8}C,E4,{4}B8/B7/E8,
{8}4/3,{16}2x,1x,{4}3<5[8:1]/8-5[8:1],8/3,4-8[8:1]/6-2[8:1],
6/4,{16}7xh[16:3],,,5h[16:7],,,{8}4h[4:1],,,,6/3,
{4}7<5[8:1]/4-8[8:1],7/4,2>4[8:1]/5-1[8:1],
2/5,{8}8/2,1,8/7,6,{16}2,4,2,4,
2,6,2,7,1b,,,8/2,,,{8}7/5,{4}6-2[8:1]/3-7[8:1],
6/3,{8}8/1,8/1,{16}8,2,{8}8,{16}7,3,6,4,
{8}5,2/1,3/4,2,2/5,1,{16}7,7,{8}8,
6/1,5/3,7/4>1[8:1],6/5,{16}8-4[8:1],7,{8}6,{16}8x,,,6h,
,,{8}4x/3x,2/5<8[8:1],3/4,{16}1-5b[8:1],2,{8}3,1x,{16}B2,E3,
B3,B4,{8}6x,7x/3x-1[8:1],6,5/3,7x,2/6x-8[8:1],{16}6,5,
{8}6x,4x,1-3[8:1],{16}8,7,{8}1,8h[8:1],{16}E5,E4,E3,E2,
{8}8-4[8:1],8,2-4[8:1],1,2/8-2[8:1],7,8/6-8[8:1],5,
6/4>6[8:3],3,{4}1h[4:1],{8},1,{4}2h[4:1],
{16},,3,4,{8}5/7,8,6/5,7,{16}1,8,2,6,
3,4,{8}2/5,3/4,3,2/4,1,{16}7,8,6,1,
5,2,{8}4/3,{16}6,4,8h,2,5h,4,6,2,7,4,5,1,
8,2,{8}6,{4}4h[4:1]/5h[4:1],{16},,,,3,4/3,,6,
{8}6/5-1[8:1],4/7,5b/8<5[8:1],7,8/3,{16}2,2,{8}1>4[8:1],3,
1/5,6,{16}7,8/7,,2,{8}1/2,3/4,2/5h[8:1],2,
7/1,{16}6x,5x,{8}4-7b[8:1],3,4/2-5[8:1],1,2/8-3b[8:1],7,
8/6<4[8:3],5,{4}6/1h[2:1],{32},,,,,,,,A5,A6,A7,A8,A1,A2,A3,A4,
{4}1xh[4:1]/A5f/E6/E5,{16}4-7[8:1],,,2,{8}4,1,{16}1,2,3,4,
{8}8,7/1,{16}3,4,2,5,4,5,3,6,5,6,4,7,
{8}1,2/8,{4}7h[4:1]/3h[4:1],,8h[4:1]/4h[4:1],
{16},,,,7,3,5,2,8,1,6,5,7,2,4,1,
{8}8h[8:1],1,{16}7/2h[16:3],,,3h[16:3],,,{8}4h[8:1],{16}8,7,6,5,
1-5[8:1],2,3,4,{4}1x/5<4[16:7],{16}E5,E6,E7,E8,E1,E2,E3,E4,
,,8,7,6/5h[16:3],,,4h[16:3],,,{8}2,{16}8/1,7/2,,,2/4,
5/1,,,5h[8:1]/7h[8:1],,,8h[8:1]/4h[8:1],,,{8}3qq4[4:1]/7qq8[4:1],,,,,7x/3x,
{16}7,6,{8}5/2,{16}1,2,{8}3/7,8,
{16}2,1,3,8,4,6x/4x,,1,{8}8/1,7-4[8:1]/2-5[8:1],{16},,,,,,,,5,
4,5,4,6,4,5,4,7,4,5,4,
8,7,6,5,{8}3/4h[8:1],2,{16}1-5[8:1],4,3,4,{8}1,{16}8,8,
,6,{8}6/4,3,5/2,1,7/4,{16}8-4[8:1],5,6,5,
{8}8,2,2/1h[8:1],3,{16}4-8[8:1],3,5,2,{8}4,{16}2,2,
,7,{8}8-4[8:1],6/2,8/1,2,3,{16}5-1[8:1],6,4,7,
{8}5,{16}8,7,{4}6/Cf,{8},,,,,4/3,
{4}4-8-6[8:3]/3-1-5[8:3],,,,6h[4:1]/5h[4:1],
,4h[4:1]/3h[4:1],
,8b,{16}E2,E3,E4,E5,{4}6,
{8}3,5,{4}4/5<4[2:1],{8},,,,,1,
{4}8/1>2>3<4<5<6<7>8[2:1],{16},,,,,,,,,,1,
2,{4}3h[4:1],{16},,3,4,{8}2,8/7,
6/5,4/3,{16}2,1,2,1,3,8,3,8,4,7,5,6,
4,5,3,4,{4}2-5[8:1]*-6[8:1],2,7-3[8:1]*-4[8:1],
7,{16}1,2,3,4,7,6,5,4,2,3,4,5,
{8}8,7/1,{4}2-4[8:1]/6-1[8:1],2/6,7-4[8:1]/3v8[8:1],
7/3,{16}E8,E7,E6,E5,E2,E3,E4,E5,A8,A7,A6,A5,
{8}3,3,{4}1-4[8:1]/5-8[8:1],5-2[8:1]/1-6[8:1],5V71[16:3]/1V35[16:3],
{8},,B7/E7/B6,B2/B3/E3,8,1,{16}7,2,6,3,
5,4,5,4,3/6,,,2,{8}2/1,7/5,{16}3,4/3,,,{4}1/8,
{8}6/5,{16}4,5,{8}3,6/2,{16}8,7,4,5,
2,1,{8}3/8,6/4,{16}5,4,{8}6,3/7,{16}1,2,5,4,
7,8,{8}6/1,2/4,{16}3,3,{8}4h,2/5,{16}8,1,7,2,
{8}4/6,5/3,1,{16}3,5,{8}5,6/4,{16}8,1,6,3,
4,2,8,7,{8}6/5b,{16}2,1,{8}3,{16}6,6,{24}3,2,{48}1,,,,,7,,,{8}7,
5,{24}8,7,{48}6,,,,,4,,,{8}4,2/1,{16}4,5,2,6,
8,4,7,8,{8}1/2,{16}3,4,{8}1,{16}6,5,{8}8,{16}1,1,
{8}7,6/5,{24}3b,4,3,4,3,4,{8}3,5/2,7/4,{16}8,2,
{8}5,{16}2,4,{8}1/5,{16}7,1,5,2,4,3,8,1,{8}7,
{24}5,6,5,6,,,{8}7/4,{16}6,4,{8}7/3,{16}2,8,4,7,5,6,
1,8,{8}2,{24}4x,5,6h[12:1],,,1,2,3h[12:1],,{8}8,{24}7,6,{12}5h[12:1],{24}1,2,
{8}3,6/5,{16}B5,B4,B3,E3,{8}8,7/1,{16}3,3/5,,8,
{8}8/1,6/5,7b/3b,{16}1,2,{8}8,{16}4,4,{24}8,7,{48}6,,,,,2,,,{8}2,
6/4,{16}7,7,5,6,4,5,2,2,8-4[8:1],1,6,2,
{8}8,2,{16}3,6,8h,4,6h,3,1,5h,3,4,2,2,
6,5,{8}7,{24}4b,8,4,8,4,8,{8}4,3/7,2/6,5/3,
{16}4,5,3,6,1/C,,,7/B4/E4,,,{8}2/B6/E7,{4}8h[4:1]/B5/B4/E5f,
1h[4:1]/E6/B5/B6f,{24}7,6,5,,,2,3,4,,{8}8,{24}8,7/1,6/2,5/3,{12}4,
{4}7b/1b,(151)4h[4:1]/6h[4:1],,5h[4:1]/3h[4:1],
{8},,6/2,{16}3,3,{8}4,5/2,{16}6,5,{8}6,
7/4,{16}8/1,7/2,3/6,,,2,{8}8,4/5,{16}6,4,5,3,
{8}8,7/1,{16}3,3,4,3,5,4,5,4,6,5,7,4,
8,8,1x,2x,{4}3x/4w8[0.3974##0.2],(150),5w1[8:1],
,7b`3<5-8<6-3[4:13],,B1/E2,
,1,{8},2,{4}2,
,4h[4:1],{16},,E3,B1,{4}A8,
{16},,,,1-4[4:1],,,1,,,,,,,,,,,,,{4}7/5,
{16},,1,1,{4}1,
{16},,,,3x/2x,,,5x/4x,,,{8}7x/6x,{4}8x/1x,
,5h[4:1]/4h[4:1],{16},,8,8,{4}8b,
{16},,,,5/6-2[8:1],,,6/1>4[8:1],,,{8}1,{16}8-3[8:1],,,3-7[8:1],
,,{8}5,{4}B4/B3,{16}E8,B2,B6,E4,{4}A8/D8/A2,
{8}3/4,6/2,{16}8,C,,7,{8}5h,{16}4,6h,,,{8}8/1,
{16}2x,3x,{8}4x,{16}6,5,6,4,7,4,5,3,6,3,4,2,
5,1,1,7,4,6,2,8,{8}3,5/1,{16}E8,B7/B8,B6/B1,A5/A2,
,,3,4,3v8[8:1],,,5,,,{8}6v8[8:1],,2,
3,4,{16}5,6h,,2,{8}8h,3/5,{16}6,6/4,,1,
{8}8/1,4/3,{12}2,3,4,5x/3x,4,5,6x/4x,5,6,
7x/3x,2,1,{48}E8,,,E7,,,{16}E6,E4,E3,E2,8,7,6,5,4,3,
2,1,8,7,5x,6x,5x,7x/4x,,,3,3,4,2/5,,,7,
8,7,1/5,,,1,8,2,6,3,5,4-7[8:1],,,4-1[8:1],
,,{8}4,{16}8x,8x,8x,E8/B7f,,,2,2,2,B2/B3f,,,6,
6,6,5,4,3,2,1,8,7,6,5,4/8,,,7/3,
,,{8}5b/1b,{4}7h/3h,{16},,,,,,,,,,,,4h[16:3],
,,2h[16:3],,,{8}8h[8:1],{4}1,
2/7,{8}6,5,4,3h[8:3],,,,,5,
4,3,2,1/5,6,
7,{16}1,8,1h[16:3],,,2h[16:3],,,{8}3h[8:1],{4}4>1[4:1],
{16},,,,7,,,6,,,{8}5,{4}E2/E3,
B7/E5,4h[8:1]/3h[8:1],{8},7/5,{4}5/7V15[4:1],
{8},,3,2,1,4,6,7,
8,7/1,{4}6h[4:1]/2h[4:1],,3/4,
6/5,7<2[8:3]/2p8[8:3],,,,7/3,
{16},,,,4/6,,,3,
,,{8}2h[8:5]/4-8>3-7[16:7],{16},,,,,,,,,,,,,,3,
3,8h[16:3],,,7h[16:3],,,{8}6h[8:1],5,4,
5/7h[16:1],3,{4}2h[16:1]/4>6[8:3],{8},,,2,
1-5[4:1],8,{4}7-4[4:1],,3-8[4:1],
,7<1[2:1],{8},,,,,,4,
4h[4:1],,5,{16}5h[4:1],,,6,
,,{8}7,{4}8h[4:1]/6-1-3-7[2:1],{8},,,,,,2/1,
1/2h[4:1],,4,{16}4h[4:1],,,3,
,,{8}2,{4}1/8-6-4-2>8[8:5],{16},,,,,,,,,,1x,
2x,{4}3xh[2:1],{8},,5,6h[4:1],
,8,{4}8h[4:1],{16},,,,7/1,,,4/2,
,,{8}6/5,4/7,4,8/3,7,6/2,3,
7/4,6,{16}4,5,4,5,4,5,4,5,4,5,4,5,
4,5,4,5,4,5,4,5,4h,5h,4h,5h,4h,5h,4h,5h,
4h,5h,4h,5h,{24}E6/E4,B6/B3,B7/B2,E8/E2,,,,,,,,,,,,,,,,,,{8}8h[8:15],
,,,,,2,
,,{4}1h[4:3],{16},,,,,,,,,,7/2,
6/3,{4}5/4q5[8:3],{16},,,,7,,,8,
,,{8}1,{4}2/5pp4[8:3],,1h[4:1],
{8},1,{4}4h[4:1]/3h[4:1],,8h[4:1]/6h[4:1],
{8},,2/4,2,2/4,5,{4}4/6h[4:1],
{8}1,2/8,7/3,6,6,{16}4,5,{8}2,3,
6/2,5,7,7,6/4,{16}1,7,{8}1,8/2,
3/5,7/4,{16}6-2[8:1],,,3-8[8:1],,,{8}3,{16}4-7[8:1],,,4/1-5[8:1],
,,{8}1,{4}8<3[4:1],{16},,,,1,,,1,
,,{8}2/8,7b/3b,{16}4,5,{8}3,{16}6,5,{8}7<4[8:1],{16}8,8,
{8}7,1,{16}2,2,4,4,3,5,2,7,1,2,3,4,
{8}6/5,{16}8,8,{8}1-4[8:1],{16}6,6,{8}1-6[8:1],{16}7,7,{8}1>4[8:1],{16}5,5,
{8}1,7,{24}8b,4,8,4,8,4,{8}8,6/2,{4}5b/1bw5[8:1],
{16},,,,3/7,7/3,,2h,,,{8}3/5,{16}6,4,7,3,
8,7,2,3,{8}4/8h[16:3],{16}3,7,2,6,1,5,8,1,2,3,
5/4,6,7,8,{4}4qq1[8:3],,8qq5b[8:3],
{16},,,,2,,,2,,,{8}6/2h[8:1],{16}7,,,7,
,,7,5,6h[16:3],,,7h[16:3],,,{8}8,{4}2/1,
3/4,5h[4:1]/1h[4:1],{16},,6,5,3,2,7,6,
2,1,8,7,{4}6/Cf,{16},,,,2/4,1/5,,,7/8,
6/1,,,2h[8:1]/4h[8:1],,,5h[8:1]/3h[8:1],,,{8}6v4[16:3]/2v8[16:3],,,,,6/2,
{16}7,5,{8}6,{16}3,4,{8}1,{16}8x/2x,7x/3x,
{4}6x/4x,{16}7,7/5,,1,{8}1/8,4qq5[16:3]/3<7[16:3],,,,,8/4,
{16}7/3,6/2,{8}5/1,{16}5x/1x,6/2,{8}3/7-3[8:1],5/1,
{4}3b/7b,{8}1/5,{16}6,5,{8}8,1/2,{16}8-4[8:1],4,6,2,
{8}8,1h[8:1],,6/2,{16}5,5,{8}3,{16}4,6,3,5,
{8}1,8h[4:1],2,{16}3,3,{8}7,6/5,{16}4-8[8:1],8,2,6,
{8}4,7,{16}6,5,{8}4/3,{16}1,1,,,4/2,4/2,,7/5,
{8}7/5,8b/1b,{16},,1,7,{8}4h[8:1],5,{16}6,2,4,2,
7,2,{8}1<6[8:1],3,4,{16}3,2,{8}1-5[8:1],{16}4,5,6,7,
{8}8,8,3/5,{16}6,2,{8}5h[8:1],4,{16}1,7,5,7,
2,7,{8}8>3[8:1],6,5,{16}6,7,{8}8-4[8:1],{16}5,4,3/8,2,
{8}1,1,{24}8,4,8,4,8,4,8,4,8,4,8,4,8,4,8,4,8,4,
8,4,8,4b,
E
