&title=TIT FOR TAT
&artist=MYTH & ROID
&first=0.09
&des=differ
&clock_count=4
&lv_5=13+
&des_5=
&inote_5=(173)
{8},,,,,,,,1b/7,,2,2,5,3,6,6,5,5,8-4b[8:1],2,3bV52[4:1],,,,
7,7,4,6,3,3,4,4,1,6,2,8,3b-6[8:1]/7h[4:1],,,,
5qq1[2:1]/8xh[4:1],,,7xh[4:1],,,6x,,1/6,,16,,35,,35,,
4pp8[2:1]/1xh[4:1],,,2xh[4:1],,,3x,,8/3,,83,,64,6,5h[4:1],,
7,7,2,2,5,5,4,4,57,7,38,3,4b/2b,1,6,,
{16}57,,3-8[8:1],4,3,,7b,,,,4,,35,,2-5[8:1],8,2,,6b,,,,5,,4b/6b,,3,,28,,7,,
1-3[8:1]/6,,4,,1,,5,,2-5[8:1],,6,,2,,7,,8-4[8:1],,5,,8,,2,,5b>7[4:1],,,,57,,,,
6-1[8:1],,5,,6,,3,,7-3[8:1],,1,,7,,2,,2>5[8:1],,4,,2,,8,,1,8,7,6,3bh[4:1]/5b,,,,
8-6[8:1],,5,,8,,4,,7-4[8:1],,3,,7,,2,,1-5[8:1],,4,,1,,7,,4b<2[4:1],,,,42,,,,
3-8[8:1],,7,,3,,6,,2-5[8:1],,6-8[8:1],,2,,6,,3-8[8:1],,8xV25[4:1],,3,,7,,6-1[8:1]*-4[8:1],,,,6b,,,,
{8}8,1,7-4[8:1],1,2h[4:1],,3,,1>4[8:1]/6,1,5,,8b<5[8:1]/3,,C,,
3,3,4-7[8:1],2,1h[4:1],,8,2/8<5[8:1],,4,4b-7[8:1],,1-4[8:1],,6-1[8:1],,
6,5,8,7,2,3-8[8:1]/4,,3,4,1,1<3[4:1]/7,6,5b,,8h[4:1],,
2-6[8:1],7,2,8,5-1[8:1],7,5,6,25,2,34,,2bv5[8:1]/6b-1[8:1],,2x/6x,,
4,8,2>5[8:1],8,7h[4:1],,6,7,8<5[8:1]/3,8,4,,1b>4[8:1]/6,,C,,
6,6,5-2[8:1],7,8h[4:1],,1,7/1>4[8:1],,5,5b-7[8:1],,4-8[8:1],,3-1[8:1],,
3,4,1,2,7,6-1[8:1]/5,,6,5,8,8>6[4:1]/2,3,4b,,1h[4:1],,
7-3[8:1],2,7,1,4-8[8:1],2,4,3,74,7,65,3,1bw5[8:1],,1x,,
2<6[4:1],,4h[4:1],,,,57,,7>3[4:1],,5h[4:1],,,,24,,2,13,,5,46,,8,17,,35,26,,
{16}1,7,2,6,3,,45,,6bx<1[8:1],,,,5,,2,,6<1[8:1],,5,,5,,2,,5b>2[8:1]/6b<1[8:1],,,,,,,,
8,2,7,3,6,,45,,3bx>8[8:1],,,,4,,7,,3>8[8:1],,4,,4,,7,,4b<7[8:1]/3b>8[8:1],,,,,,,,
1bx-5[8:1]/Cf,,,,,,,,6<8[8:1]*>3[8:1],,,,6,,,,12,,3,,56,,7,,
,,71,,2<4[4:1]/6,,53,,2b,,,,8h[4:1],,,,3-8[8:1],,3,,7-4[8:1],,7,,
1x-6[8:1],,1x-4[8:1],,,,,,,,46,,37,,,,
{24}8,7,6,5,4,3,2,1,8,7,6,5,
{16}3bx>8[8:1],,,,4,,7,,3>8[8:1],,4,,4,,7,,1b<6[8:1]/2b>5[8:1],,,,,,,,
{24}1,2,3,4,5,6,7,8,1,2,3,4,
{16}6bx<1[8:1],,,,5,,2,,6<1[8:1],,5,,5,,2,,8b>3[8:1]/7b<4[8:1],,,,,,,,
5bw1[8:1]/Cf,,,,,,,,7-3[8:1],,,,4-7[8:1]/7,,,,1,,2,,3V51[4:1],,,,
3,,8,,7,,2,,2-6b[8:1]/6,,,,8h[4:1],,,,
4,,6-1[8:1],5,6,,2b,,,,5,,64,,7-4[8:1],1,7,,3b,,,,4,,5b/3b,,6,,71,,2,,
35,,6,5,6,,7,,8/4,,3,,26,,5,,1,,3,4,3,,2,,1b<4[16:3]/7,,,,1x/2x,,,,
2,,3,4,3,,5,,74,,6,5,6,,47,,38,,2,,15,,6,,7-4[8:1]/3-6[8:1],,,,37,,,,
64,,3,4,2,,25,,1/6,,6,3,7,,47,,83,,2,1,3,,43,,8b>5[16:3]/2,,,,8x/7x,,,,
7,,6,5,7,,43,,25,,1,7,2,,35,,3,4,2,5,1,6,8,7,1b,,34,,8,,56,,,
